<?xml version="1.0" standalone="no"?>
<!DOCTYPE svg PUBLIC "-//W3C//DTD SVG 1.1//EN" "http://www.w3.org/Graphics/SVG/1.1/DTD/svg11.dtd" >
<svg>
<metadata>
Created by FontForge 20120731 at Mon Dec  9 00:12:09 2013
 By rahah
Linux Libertine by Philipp H. Poll,
Open Font under Terms of following Free Software Licenses:
GPL (General Public License) with font-exception and OFL (Open Font License).
Created with FontForge (http://fontforge.sf.net)
Sept 2003, 2004, 2005, 2006, 2007, 2008, 2009, 2010, 2011,2012
</metadata>
<defs>
<font id="LinLibertineDisplay" horiz-adv-x="952" >
  <font-face 
    font-family="Linux Libertine Display"
    font-weight="400"
    font-stretch="normal"
    units-per-em="2048"
    panose-1="2 0 5 3 0 0 0 0 0 0"
    ascent="1638"
    descent="-410"
    x-height="848"
    cap-height="1331"
    bbox="-98 -504 2003 1972"
    underline-thickness="81"
    underline-position="-201"
    unicode-range="U+0020-1D550"
  />
<missing-glyph horiz-adv-x="1024" 
d="M102 1235v-1040l349 520zM164 102h696l-348 521zM573 715l349 -520v1040zM512 807l348 518h-696zM0 0v1430h1024v-1430h-1024z" />
    <glyph glyph-name=".notdef" horiz-adv-x="1024" 
d="M102 1235v-1040l349 520zM164 102h696l-348 521zM573 715l349 -520v1040zM512 807l348 518h-696zM0 0v1430h1024v-1430h-1024z" />
    <glyph glyph-name="space" unicode=" " horiz-adv-x="512" 
 />
    <glyph glyph-name="exclam" unicode="!" horiz-adv-x="589" 
d="M295 1348q41 0 72.5 -37t31.5 -113q0 -59 -7 -115.5t-19.5 -135.5t-20.5 -144q-10 -96 -17 -183.5t-9 -134.5t-4 -55q-4 -41 -27 -41t-27 27q-2 12 -6 77.5t-11 152.5t-15 157q-6 59 -26 186t-20 209q0 76 32 113t73 37zM193 96q0 37 34.5 68t71.5 31q39 0 68.5 -34
t29.5 -73q0 -35 -32.5 -66.5t-73.5 -31.5q-37 0 -67.5 33.5t-30.5 72.5z" />
    <glyph glyph-name="quotedbl" unicode="&#x22;" horiz-adv-x="688" 
d="M440 874q-53 326 -53 345q0 37 31 69.5t74 32.5q72 0 71 -68l-67 -370zM182 872q-53 326 -53 345q0 37 30.5 69.5t73.5 32.5q72 0 72 -68l-67 -370z" />
    <glyph glyph-name="numbersign" unicode="#" 
d="M571 502l37 235h-231l-39 -235h233zM686 737l-39 -235h195l-15 -109h-192l-62 -364h-77l55 364h-229l-60 -364h-76l58 364h-191l17 109h192l37 235h-190l16 109h190l60 366h78l-62 -366h234l57 366h78l-60 -366h197l-16 -109h-195z" />
    <glyph glyph-name="dollar" unicode="$" horiz-adv-x="950" 
d="M470 31q33 0 71.5 12.5t77.5 39t64.5 76.5t25.5 115q0 64 -20.5 113t-58 80t-67.5 47.5t-73 32.5l-41 -516h21zM390 37l42 533q-56 24 -85.5 38t-84 49t-84 68.5t-54 87t-24.5 115.5q0 96 59 168.5t142.5 106.5t172.5 34h11l12 147l59 -4l-11 -145q72 -5 136.5 -26.5
t106.5 -26.5q28 -141 36 -264q-15 -12 -46 -13q-70 231 -238 272l-37 -468q363 -137 363 -371q0 -31 -5 -66.5t-30.5 -91t-66.5 -97.5t-122 -74t-189 -32h-8l-14 -176l-59 5l13 174q-62 4 -152 24.5t-148 20.5q-31 128 -41 311q18 9 21 10t25 -4q29 -129 107 -207t193 -98z
M445 732l36 453q-11 1 -22 1q-90 0 -155.5 -66.5t-65.5 -171.5q-1 -124 207 -216z" />
    <glyph glyph-name="percent" unicode="%" horiz-adv-x="1304" 
d="M887 170q0 -74 27.5 -110.5t62.5 -36.5q78 0 137.5 107.5t59.5 205.5q0 70 -36 105.5t-67 35.5q-72 0 -128 -104.5t-56 -202.5zM774 201q0 127 81 225t194 98q74 0 125 -42t51 -144q0 -121 -72 -242t-188 -121q-88 0 -139.5 69t-51.5 157zM745 1047q221 0 322 131l47 -33
l-840 -1170l-51 31l735 1024q-98 -39 -233 -39q-90 0 -164 43q6 -23 6 -51q0 -119 -72.5 -240.5t-189.5 -121.5q-88 0 -138 68.5t-50 154.5q0 135 81 230t191 95q41 0 81 -15t56 -36q16 -8 48 -22.5t41.5 -19.5t31 -13t32.5 -10t28.5 -4t37.5 -2zM227 815q0 -72 29 -109.5
t61 -37.5q78 0 138.5 106.5t60.5 206.5q0 70 -35 105.5t-69 35.5q-72 0 -128.5 -104.5t-56.5 -202.5z" />
    <glyph glyph-name="ampersand" unicode="&#x26;" horiz-adv-x="1417" 
d="M512 692q-147 -86 -201.5 -178t-54.5 -211q0 -131 76 -201.5t164 -70.5q100 0 168.5 54t156.5 173q-90 119 -191.5 261t-117.5 173zM860 199q-160 -219 -379 -219q-160 0 -276.5 89t-116.5 250q0 121 92 223.5t295 207.5q-113 186 -113 309q0 100 86.5 183t229.5 83
q113 0 187.5 -53t74.5 -148q0 -80 -77 -180t-228 -184q49 -86 264 -377q86 127 159 262q29 54 38 84t-4.5 45.5t-34.5 19.5t-70 7q-8 10 -8 24.5t8 22.5q12 0 48 -3t73 -5t68 -2q41 0 105.5 5t66.5 5q8 -8 8 -22.5t-8 -24.5q-96 -6 -130 -32t-104 -151q-100 -178 -178 -290
l76 -109q96 -139 162 -139q90 0 151 121q23 0 43 -21q-43 -98 -102.5 -149t-108.5 -51q-41 0 -68.5 6t-74.5 37.5t-92 93.5zM600 817q90 59 144.5 149.5t54.5 153.5q0 70 -35 112t-96 42q-63 0 -108.5 -49t-45.5 -146q0 -41 22.5 -117.5t63.5 -144.5z" />
    <glyph glyph-name="quotesingle" unicode="'" horiz-adv-x="389" 
d="M162 872q-53 326 -53 345q0 37 30.5 69.5t73.5 32.5q72 0 72 -68l-68 -370z" />
    <glyph glyph-name="parenleft" unicode="(" horiz-adv-x="610" 
d="M90 516q0 274 121 520t313 412q8 0 13.5 -4t7.5 -6t5 -13.5t3 -13.5q-307 -346 -307 -895q0 -545 307 -899q-12 -31 -29 -35q-121 104 -208 231.5t-129 228.5t-66.5 213t-27.5 162t-3 99z" />
    <glyph glyph-name="parenright" unicode=")" horiz-adv-x="610" 
d="M520 516q0 -274 -120.5 -520t-313.5 -412q-8 0 -13 4t-7.5 6.5t-5.5 13.5t-3 13q307 346 308 895q0 545 -308 899q12 31 29 35q121 -104 208 -231t129 -228.5t66.5 -213t27.5 -162t3 -99.5z" />
    <glyph glyph-name="asterisk" unicode="*" horiz-adv-x="755" 
d="M344 1120q-35 8 -86 8q-166 0 -166 76q0 25 16.5 43.5t51.5 18.5q39 0 99 -45t97 -60q-4 41 -25.5 101.5t-21.5 87.5q0 33 17.5 56.5t44.5 23.5q68 0 67 -72q0 -29 -18.5 -99.5t-20.5 -99.5q39 16 98.5 61.5t96.5 45.5t53.5 -20.5t16.5 -41.5q0 -76 -142 -76
q-63 0 -112 -8q25 -27 71.5 -58.5t72.5 -57t26 -62.5q0 -27 -18.5 -43t-41.5 -16q-35 0 -58.5 32.5t-47 93t-39.5 87.5q-14 -27 -39 -90.5t-47.5 -93t-57.5 -29.5q-27 0 -43 17.5t-16 39.5q0 39 26.5 65.5t73.5 56t72 58.5z" />
    <glyph glyph-name="plus" unicode="+" horiz-adv-x="1079" 
d="M584 520h360v-90h-360v-360h-95v360h-354v90h354v363h95v-363z" />
    <glyph glyph-name="comma" unicode="," horiz-adv-x="450" 
d="M213 195q49 0 89 -59.5t40 -143.5q0 -102 -69.5 -170t-170.5 -86q-14 14 -14 37q74 18 127 74.5t53 93.5q0 61 -73 69q-90 14 -91 84q0 41 33 71t76 30z" />
    <glyph glyph-name="hyphen" unicode="-" horiz-adv-x="692" 
d="M555 473h-442h-5q-26 0 -26 19q0 27 16.5 49t34.5 22h449q12 0 17 -1t8 -5t3 -14q0 -20 -18.5 -45t-36.5 -25z" />
    <glyph glyph-name="period" unicode="." horiz-adv-x="450" 
d="M123 96q0 37 35 68t71 31q39 0 69 -34t30 -73q0 -35 -33 -66.5t-74 -31.5q-37 0 -67.5 33.5t-30.5 72.5z" />
    <glyph glyph-name="slash" unicode="/" horiz-adv-x="649" 
d="M590 1323l-486 -1444h-73l485 1444h74z" />
    <glyph glyph-name="zero" unicode="0" 
d="M475 1198q-39 0 -76 -27.5t-72.5 -91t-58 -192.5t-22.5 -307q0 -76 11 -163t34.5 -177t70 -149.5t107.5 -59.5q27 0 57.5 9t73.5 55t64 122q35 127 34 442q0 193 -38.5 326t-92.5 178q-39 35 -92 35zM467 -20q-170 0 -278.5 183t-108.5 439q0 291 117.5 469t277.5 178
q86 0 141.5 -32.5t108.5 -102.5q139 -184 139 -493q0 -170 -39 -301.5t-101 -202t-128 -104t-129 -33.5z" />
    <glyph glyph-name="one" unicode="1" 
d="M584 223q4 -123 34.5 -152.5t143.5 -33.5q8 -8 8 -22.5t-8 -24.5q-47 0 -120 5t-124 5q-55 0 -135 -5t-123 -5q-23 23 0 47q113 4 143.5 33.5t34.5 152.5q3 92 3 349q0 267 -3 360q-4 119 -41 119q-55 0 -178 -52q-27 18 -31 45q262 121 396 205q12 0 12 -10
q-4 -33 -12 -274q-3 -92 -3 -371t3 -371z" />
    <glyph glyph-name="two" unicode="2" 
d="M125 958q0 104 95 197.5t253 93.5q143 0 255 -78.5t112 -232.5q0 -74 -31 -139.5t-66.5 -107.5t-107.5 -111l-207 -199q-14 -14 -45 -52t-69 -105.5t-38 -110.5h386q53 0 84.5 51t58.5 166q20 4 39 -11q-4 -143 -49 -323q-94 4 -160 4h-359l-149 -4q0 98 46 189t187 235
l152 149q86 86 116.5 170t30.5 191q0 133 -64.5 200.5t-133.5 67.5q-100 0 -146.5 -47t-46.5 -98q0 -10 8.5 -28.5t8.5 -20.5q8 -29 8 -41q0 -27 -28.5 -48.5t-57.5 -21.5q-35 0 -58.5 17t-23.5 48z" />
    <glyph glyph-name="three" unicode="3" 
d="M449 1198q-57 0 -126 -45t-69 -131q0 -37 -20.5 -72t-59.5 -35q-33 0 -51.5 23t-18.5 47q0 31 19.5 71t60.5 86t122 76.5t186 30.5q141 0 213.5 -69.5t72.5 -147.5q0 -33 -5 -58.5t-23.5 -63.5t-62.5 -80t-114 -85l2 -4q111 -18 195 -97t84 -230q0 -197 -135 -317
t-326 -120q-102 0 -198.5 40t-96.5 98q0 25 28 48t58 23q49 0 88 -53q4 -4 14.5 -23.5t18.5 -29.5t23.5 -24.5t38 -20.5t53.5 -6q80 0 173 89t93 267q0 268 -270 268q-53 0 -88 -4l-11 45q129 20 222.5 122t93.5 185q0 90 -55 143.5t-129 53.5z" />
    <glyph glyph-name="four" unicode="4" 
d="M558 428q2 511 -3 625q-244 -334 -426 -625h429zM866 428q31 0 31 -33q0 -18 -18.5 -30.5t-40.5 -12.5h-144q1 -166 2 -209q2 -68 30 -84t114 -22q8 -8 8 -22.5t-8 -24.5q-23 0 -93.5 5t-115.5 5q-55 0 -141.5 -5t-100.5 -5q-8 10 -8 24.5t8 22.5q57 4 85 9t53.5 28.5
t27.5 68.5q2 43 2 209h-420q-63 0 -80 86q317 498 555 789q18 23 33 22h51l4 -4q-2 -6 -2 -32.5v-74.5t-2 -91q-5 -113 -3 -619h173z" />
    <glyph glyph-name="five" unicode="5" 
d="M666 387q0 160 -72 246t-178 86q-129 0 -260 -49l69 569q119 -10 221 -10q123 0 336 22l15 -8l-33 -119q-125 -12 -215 -12t-260 18l-41 -362q84 33 221 33q166 0 266.5 -110.5t100.5 -266.5q0 -195 -122 -321t-313 -126q-94 0 -192 47.5t-98 106.5q0 29 23.5 46.5
t53.5 17.5q55 0 105 -66q4 -4 17.5 -24.5t21.5 -28.5t23.5 -22.5t33 -19.5t39.5 -5q94 0 166 107.5t72 250.5z" />
    <glyph glyph-name="six" unicode="6" 
d="M266 636q-18 -85 -18 -167q0 -240 80 -340t194 -100q80 0 138.5 92t58.5 254q0 45 -12.5 96t-38 106.5t-78.5 92.5t-123 37q-119 0 -201 -71zM281 694q98 63 229 64q195 0 281 -97.5t86 -246.5q0 -158 -97.5 -297.5t-279.5 -139.5q-53 0 -103.5 11.5t-108 45.5t-100.5 86
t-70.5 144t-27.5 211q0 274 191 496q170 199 448 280q12 -8 12 -53q-354 -133 -460 -504z" />
    <glyph glyph-name="seven" unicode="7" 
d="M328 1116q-123 0 -178 -198q-16 -2 -46 6q39 256 41 327q0 6 9 6q8 -2 34.5 -15t67.5 -13h422q82 0 158 22l32 -24q-279 -678 -469 -1247l-123 -7l-16 15q272 608 481 1128h-413z" />
    <glyph glyph-name="eight" unicode="8" 
d="M483 1198q-88 0 -145 -59.5t-57 -132.5q0 -119 149 -218l64 -38q186 137 186 245q0 78 -52.5 140.5t-144.5 62.5zM807 993q0 -59 -46 -122.5t-85 -94.5t-107 -76l125 -82q164 -106 164 -286q0 -133 -104.5 -244t-290.5 -111q-166 0 -265.5 84t-99.5 238q0 141 119 246
q39 33 156 123l-37 22q-188 117 -189 277q0 121 96.5 201.5t250.5 80.5q147 0 230 -71.5t83 -184.5zM467 29q39 0 80 13t83 41t68.5 82t26.5 126q0 160 -184 272l-97 58q-117 -78 -169 -169.5t-52 -152.5q0 -125 80 -197.5t164 -72.5z" />
    <glyph glyph-name="nine" unicode="9" 
d="M699 591q18 85 18 167q0 240 -80 340t-195 100q-80 0 -138 -92t-58 -254q0 -45 12 -96t38 -106.5t79 -92.5t123 -37q119 0 201 71zM684 532q-98 -63 -229 -63q-195 0 -281 97.5t-86 246.5q0 158 97.5 297t279.5 139q53 0 103 -11t107.5 -45t100.5 -86t70.5 -144.5
t27.5 -210.5q0 -274 -190 -496q-170 -199 -448 -281q-12 8 -13 54q355 132 461 503z" />
    <glyph glyph-name="colon" unicode=":" horiz-adv-x="524" 
d="M190 735q0 37 35 68t72 31q39 0 68.5 -34t29.5 -73q0 -35 -32.5 -66.5t-73.5 -31.5q-37 0 -68 33.5t-31 72.5zM190 197q0 37 35 67.5t72 30.5q39 0 68.5 -34t29.5 -73q0 -35 -32.5 -66.5t-73.5 -31.5q-37 0 -68 33t-31 74z" />
    <glyph glyph-name="semicolon" unicode=";" horiz-adv-x="524" 
d="M190 735q0 37 35 68t72 31q39 0 68.5 -34t29.5 -73q0 -35 -32.5 -66.5t-73.5 -31.5q-37 0 -68 33.5t-31 72.5zM287 195q49 0 89 -59.5t40 -143.5q0 -102 -70 -170t-170 -86q-14 14 -14 37q74 18 127 74.5t53 93.5q0 61 -74 69q-90 14 -90 84q0 41 33 71t76 30z" />
    <glyph glyph-name="less" unicode="&#x3c;" horiz-adv-x="997" 
d="M250 489l649 -237q20 -23 20.5 -57.5t-20.5 -44.5l-799 290q-29 45 0 99l799 288q20 -10 20.5 -44.5t-20.5 -57.5z" />
    <glyph glyph-name="equal" unicode="=" horiz-adv-x="1079" 
d="M944 651v-100h-809v100h809zM944 395v-100h-809v100h809z" />
    <glyph glyph-name="greater" unicode="&#x3e;" horiz-adv-x="997" 
d="M750 483l-650 238q-20 23 -20 57.5t20 44.5l799 -291q29 -45 0 -98l-799 -289q-20 10 -20 45t20 58z" />
    <glyph glyph-name="question" unicode="?" horiz-adv-x="860" 
d="M223 1171q0 -41 10 -53q12 -14 13 -49q0 -33 -22.5 -52.5t-53.5 -19.5t-55.5 20.5t-24.5 67.5q0 102 98 185q90 80 244 80q150 0 239 -85t89 -225q0 -76 -39 -142.5t-74 -98t-100 -80.5q-82 -63 -103 -103q-27 -55 -26 -149v-90q0 -20 -33 -21q-31 0 -31 21v94
q0 201 135 330q61 59 88 110.5t27 120.5q0 102 -56 184t-136 82t-134.5 -39t-54.5 -88zM283 96q0 37 34.5 68t71.5 31q39 0 68.5 -34t29.5 -73q0 -35 -32.5 -66.5t-73.5 -31.5q-37 0 -67.5 33.5t-30.5 72.5z" />
    <glyph glyph-name="at" unicode="@" horiz-adv-x="1832" 
d="M1165 647q0 57 -37.5 93t-95.5 36q-37 0 -93 -19.5t-97 -62.5q-145 -145 -146 -362q0 -82 41 -137.5t131 -55.5q62 0 139.5 105t120.5 229q37 108 37 174zM1182 152q0 -25 22 -25q172 0 267.5 98.5t95.5 337.5q0 150 -61.5 276t-157 201.5t-202 116.5t-206.5 41
q-121 0 -236.5 -43t-214 -126t-158 -222t-59.5 -313q0 -98 20.5 -197.5t73 -202t129 -181.5t199.5 -129t275 -50q229 0 411 145l27 -37q-109 -82 -213 -124t-264 -42q-360 0 -584.5 223.5t-224.5 557.5q0 330 246.5 562t593.5 232q328 0 542.5 -192.5t214.5 -480.5
q0 -94 -30.5 -181.5t-95 -166t-184.5 -127t-280 -48.5q-74 0 -73 84q0 33 30 129l-4 2q-63 -106 -138 -160.5t-134 -54.5q-72 0 -125 28t-77.5 72t-36 82.5t-11.5 75.5q0 211 152.5 369t324.5 158q51 0 96.5 -24.5t59.5 -63.5l14 51l94 24l31 -10l-123 -528
q-26 -114 -26 -137z" />
    <glyph glyph-name="A" unicode="A" horiz-adv-x="1431" 
d="M534 569h366l-197 568h-6l-215 -530q-7 -16 6.5 -27t45.5 -11zM302 141q-5 -22 -6.5 -37t11.5 -26.5t24.5 -18.5t33.5 -11.5t39 -7t39 -3.5q9 -9 9.5 -23.5t-9.5 -23.5q-29 1 -101.5 5.5t-119.5 4.5q-44 0 -107.5 -4.5t-95.5 -5.5q-9 9 -9 23.5t9 23.5q75 5 121.5 35
t83.5 116l475 1119q38 0 107 41l428 -1192q13 -38 31.5 -61.5t46 -35t48 -15.5t58.5 -7q9 -9 9 -23.5t-9 -23.5q-27 1 -113.5 5.5t-134.5 4.5q-46 0 -144.5 -5t-123.5 -5q-9 9 -9 23.5t9 23.5q7 0 20 1q22 1 32.5 2t28.5 3.5t27 5t21 7t16.5 10.5t9 14.5t3.5 20.5t-6 26
l-130 377h-427q-34 0 -48.5 -11t-23.5 -34z" />
    <glyph glyph-name="B" unicode="B" horiz-adv-x="1196" 
d="M384 739h158q135 0 216 60.5t81 185.5q0 144 -85 220.5t-186 76.5q-88 0 -126 -9.5t-45.5 -24t-8.5 -54.5q-3 -220 -4 -455zM302 1321q46 0 134 5t122 5q109 0 191 -21t127 -52t72.5 -76.5t35.5 -85t8 -86.5q0 -80 -54 -154t-134 -115v-4q143 -41 226 -130.5t83 -229.5
q0 -72 -23.5 -135.5t-77.5 -123t-158.5 -94t-250.5 -34.5q-103 0 -185 5t-114 5q-57 0 -139.5 -4.5t-124.5 -5.5q-9 9 -9 23.5t9 23.5q61 3 89 7.5t51.5 24t30 54t7.5 100.5q4 200 4 434q0 179 -4 441q-1 65 -7.5 99.5t-30 54t-51.5 24.5t-89 8q-9 9 -9 23.5t9 23.5
q44 -1 125 -5.5t137 -4.5zM388 174q1 -61 38 -99t134 -38q112 0 189.5 25t116 70.5t54 94.5t15.5 111q0 150 -102.5 251t-301.5 101h-147v-32q0 -284 4 -484z" />
    <glyph glyph-name="C" unicode="C" horiz-adv-x="1331" 
d="M719 -20q-315 0 -479 188t-164 477q0 297 184 500t481 203q147 0 287.5 -45.5t161.5 -47.5q31 -170 45 -317q-18 -12 -47 -10q-111 365 -457 364q-193 0 -332 -178t-139 -430q0 -156 51 -294t163 -232.5t263 -94.5q143 0 255 52.5t220 171.5q31 0 48 -31
q-102 -133 -245.5 -204.5t-295.5 -71.5z" />
    <glyph glyph-name="D" unicode="D" horiz-adv-x="1443" 
d="M393 223q2 -55 8.5 -83.5t30 -55.5t71.5 -36t130 -9q115 0 209 27.5t174 88t125 169t45 258.5q0 98 -19.5 194t-65.5 188.5t-114.5 162t-173 112.5t-231.5 43q-47 0 -79 -3t-52.5 -17.5t-31.5 -22.5t-16.5 -38t-6.5 -44t-3 -59q-8 -344 -8 -443q0 -209 8 -432zM303 1321
q31 0 155 5t201 5q293 0 502 -206.5t209 -493.5q0 -145 -43 -260t-110.5 -184.5t-158.5 -115.5t-180.5 -63.5t-181.5 -17.5q-123 0 -245.5 5t-143.5 5q-57 0 -140 -5t-126 -5q-8 10 -8 24.5t8 22.5q113 4 143.5 33.5t32.5 152.5q8 340 8 434q0 100 -8 441
q-2 123 -32.5 152.5t-143.5 33.5q-8 10 -8 24.5t8 22.5q45 0 126 -5t136 -5z" />
    <glyph glyph-name="E" unicode="E" horiz-adv-x="1161" 
d="M623 731q125 2 154.5 25.5t33.5 111.5q23 23 45 0q0 -20 -4 -78.5t-4 -97.5q0 -33 4 -80t4 -80q-23 -23 -45 0q-4 55 -13.5 79t-50 41.5t-124.5 17.5l-240 2q-2 -358 4 -531q4 -88 76 -88h319q188 0 271 295q23 6 49 -10q-31 -193 -74 -348q-164 10 -262 10h-455
q-31 0 -126 -5t-144 -5q-8 10 -8 24.5t8 22.5q113 4 142.5 33.5t33.5 152.5q4 168 4 434q0 272 -4 441q-4 123 -33.5 152.5t-142.5 33.5q-8 10 -8 24.5t8 22.5q51 0 143 -5t123 -5h598q20 0 103 14q8 0 8 -6q16 -63 45 -303q-29 -14 -49 -10q-23 72 -35 101.5t-38 72.5
t-63.5 59.5t-93.5 16.5h-319q-72 0 -76 -90l-4 -447z" />
    <glyph glyph-name="F" unicode="F" horiz-adv-x="1017" 
d="M387 223q2 -61 15.5 -99t47 -55.5t66.5 -23.5t96 -8q23 -25 0 -47q-37 0 -136 5t-165 5q-57 0 -143 -5t-127 -5q-8 10 -8 24.5t8 22.5q113 4 142.5 33.5t33.5 152.5q4 168 4 434q0 272 -4 441q-4 123 -33.5 152.5t-142.5 33.5q-8 10 -8 24.5t8 22.5l266 -10h537
q20 0 102 14q8 0 8 -6q16 -63 45 -303q-29 -14 -49 -10q-23 72 -35 101.5t-37.5 72.5t-63.5 59.5t-93 16.5h-258q-72 0 -76 -90l-4 -467l240 2q125 2 154.5 25.5t33.5 111.5q23 23 45 0q0 -20 -4 -78.5t-4 -97.5q0 -33 4 -80t4 -80q-23 -23 -45 0q-4 55 -13.5 78.5t-50 41
t-124.5 17.5l-240 2q-2 -256 4 -428z" />
    <glyph glyph-name="G" unicode="G" horiz-adv-x="1454" 
d="M766 1348q141 0 271 -46.5t175 -46.5q20 -106 45 -315q-16 -12 -49 -12q-111 365 -471 364q-199 0 -346 -179t-147 -443q0 -104 36.5 -214t104.5 -205t177.5 -156.5t240.5 -61.5q80 0 165 33.5t138 85.5v331q0 57 -36 73.5t-132 25.5q-8 8 -8 26.5t8 26.5q43 0 127 -5
t127 -5q47 0 97 5t73 5q10 -8 10 -26.5t-10 -26.5q-49 -4 -71.5 -25.5t-22.5 -73.5v-256q0 -31 32 -57q-223 -190 -544 -190q-303 0 -496.5 188t-193.5 461q0 217 102 384t260 251t338 84z" />
    <glyph glyph-name="H" unicode="H" horiz-adv-x="1492" 
d="M391 223q2 -123 33 -152.5t143 -33.5q23 -25 0 -47q-45 0 -126 5t-136 5q-57 0 -139 -5t-125 -5q-8 10 -8 24.5t8 22.5q113 4 143.5 33.5t32.5 152.5q8 340 8 434q0 100 -8 441q-2 123 -32.5 152.5t-143.5 33.5q-8 10 -8 24.5t8 22.5q45 0 125 -5t135 -5q57 0 140 5
t126 5q23 -25 0 -47q-113 -4 -143.5 -33.5t-32.5 -152.5q-6 -215 -6 -357q20 -14 336 -14q360 0 377 14q0 213 -4 357q-2 123 -35 152.5t-146 33.5q-8 10 -8 24.5t8 22.5q45 0 127 -5t138 -5q57 0 140 5t126 5q23 -25 0 -47q-113 -4 -145.5 -33.5t-34.5 -152.5
q-4 -172 -4 -443q0 -264 4 -432q2 -123 34.5 -152.5t145.5 -33.5q23 -25 0 -47q-45 0 -128 5t-138 5q-57 0 -139.5 -5t-125.5 -5q-8 10 -8 24.5t8 22.5q113 4 146 33.5t35 152.5q2 88 3 238.5t1 197.5q-29 14 -379 15q-303 0 -334 -15q0 -178 6 -436z" />
    <glyph glyph-name="I" unicode="I" horiz-adv-x="620" 
d="M393 223q2 -66 8.5 -100t29.5 -54t50.5 -25t88.5 -7q9 -9 9.5 -23.5t-9.5 -23.5q-140 10 -264 10q-67 0 -266 -10q-9 9 -9 23.5t9 23.5q61 3 89 7.5t51.5 24t30.5 54.5t8 100q6 254 6 434q0 184 -6 441q-1 44 -4 72t-13 49t-19 31.5t-34.5 17.5t-45 9.5t-63.5 6.5
q-9 9 -9 23.5t9 23.5q164 -10 265 -10q76 0 265 10q9 -9 9.5 -23.5t-9.5 -23.5q-63 -4 -89 -9t-49.5 -24.5t-30 -53t-8.5 -99.5q-6 -207 -6 -443q0 -178 6 -432z" />
    <glyph glyph-name="J" unicode="J" horiz-adv-x="710" 
d="M330 -33q6 319 6 690q0 184 -6 441q-2 123 -34 152.5t-144 33.5q-8 10 -8.5 24.5t8.5 22.5q45 0 126.5 -5t137.5 -5q57 0 140 5t126 5q23 -25 0 -47q-113 -4 -143.5 -33.5t-34.5 -152.5q-6 -207 -6 -443q0 -451 2 -599q3 -167 -164 -310q-63 -54 -116.5 -74.5
t-129.5 -20.5q-48 0 -104 32.5t-56 87.5q0 34 30.5 54t59.5 20q24 0 42.5 -9t26 -17.5t18 -26.5t14.5 -24q29 -39 63 -38q43 0 93.5 65.5t52.5 171.5z" />
    <glyph glyph-name="K" unicode="K" horiz-adv-x="1323" 
d="M393 223q2 -123 34 -152.5t144 -33.5q23 -25 0 -47q-45 0 -127 5t-137 5q-57 0 -140 -5t-126 -5q-8 10 -8 24.5t8 22.5q113 4 143.5 33.5t32.5 152.5q8 340 8 434q0 100 -8 441q-2 123 -32.5 152.5t-143.5 33.5q-8 10 -8 24.5t8 22.5q45 0 126 -5t136 -5q57 0 141 5
t127 5q23 -25 0 -47q-113 -4 -144.5 -33.5t-33.5 -152.5q-6 -233 -6 -398q113 8 186 91l328 360q45 45 34 73.5t-40 42t-72 17.5q-8 10 -8 24.5t8 22.5q45 0 122 -5t120 -5t106.5 5t108.5 5q23 -25 0 -47q-166 -20 -279 -141l-301 -309q-72 -74 -71 -101q0 -20 26 -51
l449 -532q74 -92 201 -113q23 -25 0 -47q-45 0 -116 5t-112 5q-35 0 -59.5 -5t-38.5 -5q-10 0 -10 12q-8 61 -74 148l-322 405q-68 84 -186 88q0 -174 6 -420z" />
    <glyph glyph-name="L" unicode="L" horiz-adv-x="1048" 
d="M392 223q3 -164 117 -164h149q150 0 224.5 70.5t109.5 198.5q20 3 47 -11q-17 -145 -53 -327q-189 10 -244 10h-436q-31 0 -123.5 -4.5t-142.5 -5.5q-9 9 -9 23.5t9 23.5q61 3 89 7.5t51 24t30 54.5t8 100q6 255 6 434q0 185 -6 441q-2 66 -8.5 100.5t-29.5 54t-51 24
t-89 7.5q-9 9 -9 23.5t9 23.5q44 -1 126 -5.5t138 -4.5q57 0 140.5 4.5t125.5 5.5q9 -9 9.5 -23.5t-9.5 -23.5q-61 -3 -88.5 -7.5t-50.5 -24.5t-30 -54t-9 -100q-6 -206 -6 -443q0 -42 6 -432z" />
    <glyph glyph-name="M" unicode="M" horiz-adv-x="1685" 
d="M1334 211l-53 883h-4l-461 -1084q-11 -23 -29 -22q-22 0 -30 22l-424 1063h-4l-78 -848q-9 -96 15.5 -138.5t119.5 -49.5q9 -9 9 -23.5t-9 -23.5q-27 1 -88.5 5.5t-88 4.5t-89.5 -4.5t-90 -5.5q-9 9 -9.5 23.5t9.5 23.5q84 7 113.5 47t39.5 137l90 871
q12 117 -11.5 151.5t-127.5 40.5q-9 9 -9 23.5t9 23.5l275 -10l419 -1040q1 -3 4 -8q7 -17 15 -17q4 0 6 1t5.5 6.5t8.5 19.5l435 1038l270 10q9 -9 9 -23.5t-9 -23.5q-98 -6 -123 -44t-18 -130l67 -889q3 -49 5.5 -73t10 -48t15 -32.5t27.5 -17t40 -10t60 -3.5
q9 -9 9 -23.5t-9 -23.5q-26 1 -113.5 5.5t-120.5 4.5q-25 0 -97 -4.5t-122 -5.5q-9 9 -9 23.5t9 23.5q40 2 57.5 3t37.5 8.5t25 15t10 30t4.5 46.5t-3.5 71z" />
    <glyph glyph-name="N" unicode="N" horiz-adv-x="1427" 
d="M1136 1075q0 71 -6.5 109.5t-31 60t-51.5 27.5t-90 12q-9 9 -9 23.5t9 23.5q49 -1 112 -5.5t108 -4.5t109 4.5t112 5.5q9 -9 9 -23.5t-9 -23.5q-61 -6 -89.5 -13t-52.5 -28.5t-30 -59.5t-6 -108l-2 -1032v-12.5v-11.5t-0.5 -10t-1 -9t-1.5 -7t-3 -6t-4.5 -4t-6 -2.5
t-8.5 -0.5q-46 0 -82 49l-715 903q-52 68 -69 67q-27 0 -27 -100l2 -653q0 -71 6 -109.5t30.5 -60t51.5 -27.5t90 -12q9 -9 9 -23.5t-9 -23.5q-49 1 -112 5.5t-107 4.5q-45 0 -109 -4.5t-112 -5.5q-9 9 -9 23.5t9 23.5q61 6 89.5 13t52 28.5t30 59.5t6.5 108l2 880
q-40 143 -172 152q-9 9 -9 23.5t9 23.5l264 -4l703 -905q14 -18 31 -40.5t25 -33t17 -21t14.5 -14.5t10.5 -4q25 0 25 62z" />
    <glyph glyph-name="O" unicode="O" horiz-adv-x="1423" 
d="M670 1298q-158 0 -285 -164.5t-127 -463.5q0 -283 147.5 -462t344.5 -179q178 0 296.5 168t118.5 438q0 301 -143 482t-352 181zM1350 674q0 -262 -123 -436q-86 -123 -218.5 -190.5t-299.5 -67.5q-268 0 -451.5 180t-183.5 475q0 276 136 463q86 118 211.5 184t274.5 66
q283 0 468.5 -182.5t185.5 -491.5z" />
    <glyph glyph-name="P" unicode="P" horiz-adv-x="1083" 
d="M383 606q0 -125 4 -432q2 -82 47 -106.5t164 -30.5q8 -8 8 -22.5t-8 -24.5q-41 0 -134 5t-157 5q-57 0 -140 -5t-126 -5q-8 10 -8 24.5t8 22.5q113 4 143.5 32.5t32.5 153.5q4 170 4 434q0 100 -4 441q-2 123 -32.5 152.5t-143.5 33.5q-8 10 -8 24.5t8 22.5q45 0 126 -5
t136 -5q45 0 150.5 10t128.5 10q133 0 229 -35.5t141 -93t64.5 -110.5t19.5 -107q0 -72 -23.5 -138t-74.5 -129.5t-149.5 -101.5t-231.5 -38q-117 0 -174 18zM387 1194q-4 -340 -4 -537v-10q45 -10 162 -10q311 0 311 321q0 180 -82 257t-205 77q-104 0 -142 -24.5
t-40 -73.5z" />
    <glyph glyph-name="Q" unicode="Q" horiz-adv-x="1423" 
d="M670 1298q-158 0 -285 -164.5t-127 -463.5q0 -283 147.5 -462t344.5 -179q178 0 296.5 168t118.5 438q0 301 -143 482t-352 181zM1350 674q0 -262 -123 -436q-143 -204 -394 -248q-136 -40 -282 -147q22 3 51 3q119 0 303.5 -84t268.5 -84q109 0 178 86l34 -24
q-117 -168 -294 -168q-90 0 -177.5 30.5t-144.5 66.5t-129 67t-135 31q-33 0 -78 -30t-72 -91l-80 41q56 81 158.5 162.5t217.5 132.5q-249 20 -413.5 197t-164.5 456q0 276 136 463q86 118 211.5 184t274.5 66q283 0 468.5 -182.5t185.5 -491.5z" />
    <glyph glyph-name="R" unicode="R" horiz-adv-x="1280" 
d="M383 600q0 -119 4 -426q2 -84 42 -107.5t157 -29.5q8 -8 8 -22.5t-8 -24.5q-41 0 -128 5t-151 5q-57 0 -140 -5t-126 -5q-8 10 -8 24.5t8 22.5q115 4 144.5 30.5t31.5 143.5q4 309 4 446q0 100 -4 441q-2 123 -32.5 152.5t-143.5 33.5q-8 10 -8 24.5t8 22.5q45 0 126 -5
t136 -5q45 0 150.5 10t128.5 10q133 0 229 -35.5t141 -93t64.5 -110.5t19.5 -107q0 -113 -60.5 -215t-191.5 -153l256 -447q96 -158 224 -157q8 -16 2 -29q-29 -14 -107 -14q-164 0 -276 182l-219 356q-18 31 -26.5 41t-28 19.5t-52.5 9.5q-135 0 -174 12zM387 1194
q-4 -340 -4 -537v-10q45 -10 162 -10q311 0 311 321q0 180 -82 257t-205 77q-104 0 -142 -24.5t-40 -73.5z" />
    <glyph glyph-name="S" unicode="S" horiz-adv-x="993" 
d="M808 1292q28 -141 37 -264q-15 -12 -46 -12q-86 283 -324 282q-88 0 -158 -80t-70 -169q0 -48 22.5 -91.5t52 -72t80 -57.5t82 -43t83.5 -34t62 -24q130 -56 205 -136t75 -214q0 -97 -52 -186t-140 -144q-108 -67 -253 -67q-97 0 -203.5 23.5t-164.5 23.5
q-31 129 -41 311q18 9 21.5 10t24.5 -4q33 -151 134 -231t246 -80q121 0 190.5 73.5t69.5 198.5q0 56 -18 103t-40 76t-65.5 57t-70 40t-79 32.5t-68.5 27.5q-139 61 -217.5 141t-78.5 211q0 158 114.5 256.5t275.5 98.5q117 0 201.5 -26t112.5 -30z" />
    <glyph glyph-name="T" unicode="T" horiz-adv-x="1222" 
d="M545 1098q-2 96 -22.5 130t-76.5 34h-120q-211 0 -271 -238q-25 0 -49 10q39 172 51 303q0 6 9 6q285 -23 477 -22h176q203 0 459 22q6 0 6 -6q4 -143 26 -297q-23 -10 -49 -10q-51 231 -284 232h-66q-55 0 -73.5 -33t-22.5 -131q-4 -129 -4 -443q0 -262 4 -432
q2 -119 42 -150.5t158 -35.5q23 -25 0 -47q-41 0 -132 5t-152.5 5t-154.5 -5t-132 -5q-8 10 -8 24.5t8 22.5q119 4 159 35.5t42 150.5q4 170 4 434q0 294 -4 441z" />
    <glyph glyph-name="U" unicode="U" horiz-adv-x="1368" 
d="M367 551q0 -287 112 -395q117 -113 242 -113q100 0 173 34t114 84t64.5 123.5t30.5 138t7 144.5v531q0 66 -6 99.5t-33 52t-53.5 23.5t-95.5 11q-8 10 -8.5 24.5t8.5 22.5q49 0 114.5 -5t110.5 -5q39 0 95 5t106 5q8 -8 8 -22.5t-8 -24.5q-57 -6 -79 -11t-45.5 -23.5
t-29.5 -53.5t-6 -98v-494q0 -147 -21.5 -252.5t-75 -194.5t-155.5 -133t-256 -44q-80 0 -153.5 21.5t-150.5 72.5t-124 156.5t-47 252.5v174q0 270 -4 441q-2 123 -35 152.5t-146 33.5q-8 10 -8 24.5t8 22.5q43 0 126 -5t140.5 -5t140.5 5t126 5q8 -8 8 -22.5t-8 -24.5
q-115 -4 -147.5 -33.5t-34.5 -152.5q-4 -125 -4 -314v-233z" />
    <glyph glyph-name="V" unicode="V" horiz-adv-x="1380" 
d="M963 1284q-8 10 -8.5 24.5t8.5 22.5q51 -2 125.5 -6t97 -4t80 4t100.5 6q23 -25 0 -47q-48 -6 -85 -25.5t-63 -54.5t-40.5 -63t-33.5 -74l-423 -1044q-18 -47 -49 -48q-29 0 -47 48l-405 1048q-47 121 -84 163.5t-120 49.5q-25 25 -2 47q45 0 118 -5t116 -5t123 5t125 5
q8 -8 8 -22.5t-8 -24.5q-101 -10 -121 -54.5t19 -135.5l326 -834l18 -26l10 26l323 821q41 84 19.5 140.5t-127.5 62.5z" />
    <glyph glyph-name="W" unicode="W" horiz-adv-x="2009" 
d="M1725 1157q21 60 -20.5 91t-114.5 36q-9 9 -9 23.5t9 23.5q40 -1 119 -5.5t107 -4.5q27 0 83.5 4.5t94.5 5.5q9 -9 9 -23.5t-9 -23.5q-78 -4 -127 -47t-70 -104l-403 -1110q-16 -47 -56 -48q-52 0 -69 50l-240 727q-19 57 -29 57q-12 0 -28 -51l-285 -733
q-18 -49 -51 -50q-25 0 -47 13t-29 37l-373 1114q-27 81 -64 110.5t-108 34.5q-9 9 -9 23.5t9 23.5q36 -1 94.5 -5.5t102.5 -4.5q46 0 130.5 5t104.5 5q9 -9 9.5 -23.5t-9.5 -23.5q-57 -3 -83.5 -32t-10.5 -81l307 -944l13 -49l20 49l258 678q4 11 4 51q0 21 -20 84l-31 95
q-17 53 -61.5 99t-116.5 50q-9 9 -9 23.5t9 23.5q36 -1 102 -5.5t109 -4.5q44 0 127 4.5t127 5.5q9 -9 9 -23.5t-9 -23.5q-65 -6 -102 -40.5t-13 -108.5l295 -912l14 -43l15 43z" />
    <glyph glyph-name="X" unicode="X" horiz-adv-x="1386" 
d="M1129 209q66 -91 117 -129.5t115 -42.5q9 -9 10 -23.5t-8 -23.5q-18 1 -90.5 5.5t-118.5 4.5t-129.5 -4.5t-116.5 -5.5q-9 9 -9 23.5t9 23.5q42 2 62.5 11.5t19.5 29t-12 40.5t-36 56l-253 361q-23 33 -31 32q-5 0 -32 -39l-271 -378q-73 -103 70 -113q9 -9 9 -23.5
t-9 -23.5q-41 1 -116.5 5.5t-98.5 4.5q-25 0 -91 -4.5t-93 -5.5q-9 9 -9.5 23.5t9.5 23.5q154 15 258 153l303 406q16 22 16 47q0 21 -29 62l-291 415q-61 87 -114.5 123t-120.5 41q-9 9 -10 23.5t8 23.5q18 -1 90.5 -5.5t118.5 -4.5t129.5 4.5t116.5 5.5q9 -9 9 -23.5
t-9 -23.5q-42 -2 -62.5 -11.5t-19.5 -29.5t12 -41t36 -56l226 -335q19 -29 33 -29q6 0 9.5 4t19.5 27l252 358q72 103 -70 113q-9 9 -9 23.5t9 23.5q41 -1 116.5 -5.5t98.5 -4.5q25 0 91 4.5t93 5.5q9 -9 9.5 -23.5t-9.5 -23.5q-151 -14 -258 -154l-280 -362
q-23 -29 -23 -59q0 -14 41 -70z" />
    <glyph glyph-name="Y" unicode="Y" horiz-adv-x="1249" 
d="M735 223q2 -121 37 -151.5t162 -34.5q8 -8 8 -22.5t-8 -24.5q-41 0 -132 5t-152.5 5t-155 -5t-132.5 -5q-23 23 0 47q127 4 162 34.5t37 151.5l6 307q0 23 -1 37.5t-6 27.5t-8.5 19.5t-14.5 23.5t-19 30l-269 452q-57 97 -107.5 128t-125.5 36q-25 25 -2 47q14 0 98.5 -5
t131.5 -5q45 0 127 5t114 5q23 -25 0 -47q-90 -4 -108.5 -21.5t14.5 -82.5l259 -455q27 -49 51 -4l243 459q16 31 17.5 51t-15 30.5t-38 15.5t-60.5 7q-23 23 0 45q41 0 106.5 -4t89.5 -4q27 0 97.5 4t93.5 4q23 -23 0 -45q-81 -8 -130 -32t-89 -95l-261 -473
q-26 -47 -26 -136z" />
    <glyph glyph-name="Z" unicode="Z" horiz-adv-x="1224" 
d="M1116 -10q-204 10 -259 10h-746q-39 0 -39 31q0 25 16 47q164 244 408.5 585t388.5 523q33 45 33 59q0 16 -50 17l-440 -9q-203 -4 -274 -237q-6 0 -41 10q35 178 45 317q279 -23 370 -22h453q35 0 88 2t61 2q27 0 27 -22q0 -29 -49 -93q-319 -412 -768 -1063
q-16 -29 -16 -41q0 -16 13 -32.5t38 -16.5l416 9q76 2 131 21t93 64.5t57.5 79t47.5 99.5q6 12 8 18q6 0 43 -10q-39 -172 -55 -348z" />
    <glyph glyph-name="bracketleft" unicode="[" horiz-adv-x="729" 
d="M221 -395v1835h434q20 -20 0 -41q-145 -10 -206.5 -30.5t-82 -61.5t-20.5 -138v-1292q0 -96 19.5 -137t81 -61.5t208.5 -32.5q20 -20 0 -41h-434z" />
    <glyph glyph-name="backslash" unicode="\" horiz-adv-x="587" 
d="M113 1430l471 -1528h-90l-471 1528h90z" />
    <glyph glyph-name="bracketright" unicode="]" horiz-adv-x="729" 
d="M508 1442v-1835h-434q-20 20 0 41q145 10 206.5 30.5t82 61.5t20.5 137v1292q0 96 -19.5 137.5t-81 62t-208.5 32.5q-20 20 0 41h434z" />
    <glyph glyph-name="asciicircum" unicode="^" horiz-adv-x="1060" 
d="M530 1214l-208 -505h-93l260 622h86l259 -622h-93z" />
    <glyph glyph-name="underscore" unicode="_" horiz-adv-x="995" 
d="M975 -225q12 -12 12 -45t-12 -45h-955q-12 12 -12 44.5t12 45.5h955z" />
    <glyph glyph-name="grave" unicode="`" horiz-adv-x="802" 
d="M365 1325l143 -258q12 -25 12 -49q0 -8 -9 -15.5t-22 -7.5q-16 0 -59 41l-233 224l4 22q63 47 133 47q15 0 31 -4z" />
    <glyph glyph-name="a" unicode="a" horiz-adv-x="929" 
d="M600 434l-168 -41q-100 -25 -148 -82t-48 -123q0 -53 41.5 -100t109.5 -47q12 0 28.5 5t29 11t33 20.5t29.5 21.5t30.5 24.5t25.5 21.5q25 18 27 50zM590 94h-4l-39 -31q-66 -51 -109 -67t-108 -16q-244 0 -244 200q0 98 88 170t234 105l184 41q10 4 10 43q0 150 -46 212
t-107.5 62t-109.5 -24.5t-48 -67.5q0 -27 4 -39q6 -12 6 -34.5t-25.5 -49.5t-64.5 -27q-35 0 -56.5 22.5t-21.5 57.5q0 78 105.5 142.5t226.5 64.5q291 0 278 -332l-10 -290q-4 -92 12.5 -133.5t69.5 -41.5q25 0 41 16.5t18 16.5q8 0 18.5 -8t10.5 -18q0 -6 -20.5 -27
t-61.5 -41t-84 -20q-112 -1 -147 114z" />
    <glyph glyph-name="b" unicode="b" horiz-adv-x="964" 
d="M340 729q-37 -33 -37 -82q0 -426 4 -528q74 -92 139 -92q135 0 212 117.5t77 293.5q0 158 -68 258q-66 96 -161 97q-94 -1 -166 -64zM326 770q98 88 219 88q135 0 240.5 -107.5t105.5 -277.5q0 -219 -135 -356t-297 -137q-109 0 -180 59q-27 25 -54 -6q-6 -6 -63 -56
q-18 0 -26 15q-3 4 -5 8q0 4 8 27.5t12.5 50t6.5 61.5q4 80 5 520.5t-3 520.5q-4 102 -25.5 128.5t-99.5 30.5q-16 16 -10 39q174 14 264 52q25 0 24 -19q-2 -57 -6 -184l-4 -449q0 -26 23 -8z" />
    <glyph glyph-name="c" unicode="c" horiz-adv-x="858" 
d="M797 178q-123 -199 -328 -198q-182 0 -289.5 117.5t-107.5 308.5q0 197 128 324.5t283 127.5q139 0 225.5 -52t86.5 -134q0 -43 -29 -64.5t-66 -21.5q-66 0 -73 69q-18 156 -154 156q-100 0 -173 -102.5t-73 -259.5q0 -178 83 -286t202 -108q63 0 134 40t120 104
q23 -3 31 -21z" />
    <glyph glyph-name="d" unicode="d" horiz-adv-x="997" 
d="M674 221l4 412q0 70 -33 106q-59 70 -164 70q-127 0 -192 -98q-57 -82 -58 -279q0 -172 71 -276.5t157 -104.5q78 0 184 94q29 27 31 76zM651 98q-147 -119 -243 -118q-154 0 -243 116.5t-89 300.5q0 207 135 342q125 119 293 119q29 0 65.5 -9t62 -17.5t27.5 -8.5
q18 0 19 19q0 236 -4 338q-4 115 -22.5 135t-102.5 24q-18 18 -12 39q172 14 262 52q25 0 24 -19q-4 -57 -8 -184q-4 -78 -4 -498t4 -496q4 -78 29.5 -106.5t113.5 -36.5q16 -16 0 -31q-150 -18 -225 -79q-23 -6 -37 0q-20 70 -20 116q0 22 -25 2z" />
    <glyph glyph-name="e" unicode="e" horiz-adv-x="890" 
d="M233 530l396 11q29 0 28 26q0 117 -54 180.5t-130 63.5q-72 0 -143.5 -67t-96.5 -214zM774 182q33 -2 41 -32q-129 -170 -342 -170q-205 0 -309 124q-92 106 -92 291q0 209 125 336t276 127q186 0 263 -99.5t77 -244.5q0 -35 -37 -35l-549 -8q0 -174 62 -274
q43 -70 108.5 -106t124.5 -36q78 0 134.5 32t117.5 95z" />
    <glyph glyph-name="f" unicode="f" horiz-adv-x="628" 
d="M195 983q-6 188 68 301q47 71 118 108.5t145 37.5q117 0 176 -41q63 -47 64 -99q0 -29 -28.5 -52.5t-55.5 -23.5q-49 0 -78 62q-23 55 -48.5 81.5t-66.5 26.5q-85 0 -125 -133q-22 -75 -28 -235q-2 -60 -3 -178h214q14 0 14 -13v-30q0 -16 -43 -17h-185q-2 -432 3 -565
q4 -119 27.5 -144.5t125.5 -31.5q23 -25 0 -47q-35 0 -107.5 5t-121.5 5q-41 0 -98.5 -5t-93.5 -5q-23 23 0 47q82 6 102 32.5t25 143.5q5 142 2 565h-138q-10 0 -10 13v18q0 29 45 29h103q0 99 -2 145z" />
    <glyph glyph-name="g" unicode="g" horiz-adv-x="989" 
d="M629 545q0 123 -51.5 194.5t-143.5 71.5q-80 0 -122 -58.5t-42 -162.5q0 -283 189 -283q66 0 118 57.5t52 180.5zM258 -20q-68 -80 -68 -203q0 -98 71 -164t171 -66q137 0 253 76t116 178q0 84 -101 142q-66 35 -221 34q-8 0 -58 -3t-85 -3q-51 1 -78 9zM866 756
q-35 0 -53 35q-16 25 -39 24q-18 0 -43.5 -15.5t-36.5 -31.5q82 -84 82 -203q0 -137 -96 -221t-231 -84q-92 0 -177 47q-43 -63 -43 -114.5t42 -87t89 -35.5q2 0 60 4q78 10 131 10q207 0 285 -66q86 -71 86 -165q0 -152 -170 -254.5t-379 -102.5q-125 0 -219.5 61.5
t-94.5 180.5q0 66 44 138.5t120 117.5q-111 39 -110 151q0 106 106 197q-96 92 -96 219q0 131 96 214t232 83q127 0 202 -55q35 45 94.5 71.5t102.5 26.5q39 0 64.5 -20.5t25.5 -51.5q0 -29 -22.5 -51t-51.5 -22z" />
    <glyph glyph-name="h" unicode="h" horiz-adv-x="1046" 
d="M322 559q0 -244 4 -346q4 -119 22.5 -144.5t93.5 -31.5q8 -8 8.5 -22.5t-8.5 -24.5q-37 0 -91 5t-95 5q-45 0 -110.5 -5t-98.5 -5q-23 23 0 47q88 6 110.5 32.5t26.5 143.5q4 92 4 483t-4 484q-4 115 -22.5 135t-102.5 24q-18 18 -12 39q172 14 262 52q25 0 25 -19
q-6 -145 -8 -184l-7 -529q0 -27 21 0q143 160 336 160q111 0 162 -67q55 -72 47 -263q-6 -158 0 -315q4 -117 25.5 -142.5t105.5 -33.5q20 -23 0 -47q-39 0 -98.5 5t-102.5 5q-41 0 -99.5 -5t-94.5 -5q-20 25 0 47q78 8 97 33.5t23 142.5q6 162 0 322q-6 150 -28 192
q-35 70 -105 70q-98 0 -254 -156q-32 -33 -32 -82z" />
    <glyph glyph-name="i" unicode="i" horiz-adv-x="546" 
d="M164 1227q0 37 34.5 67.5t71.5 30.5q39 0 69 -34t30 -72q0 -35 -33 -67t-74 -32q-37 0 -67.5 34t-30.5 73zM360 223q4 -125 28 -152.5t120 -33.5q8 -8 8 -22.5t-8 -24.5q-154 10 -221 10q-90 0 -224 -10q-23 23 0 47q96 8 120 35.5t28 150.5q4 137 4 229q0 95 -4 177
q-4 88 -25.5 109.5t-107.5 29.5q-8 25 -4 37q178 23 272 59q27 0 27 -14q-7 -111 -13 -212q-4 -83 -4 -188q0 -114 4 -227z" />
    <glyph glyph-name="j" unicode="j" horiz-adv-x="557" 
d="M203 1227q0 37 34.5 67.5t71.5 30.5q39 0 69 -34t30 -72q0 -35 -33 -67t-74 -32q-37 0 -67.5 34t-30.5 73zM231 629q-4 86 -26.5 108.5t-106.5 30.5q-8 25 -4 37q195 25 281 59q27 0 26 -14q-6 -111 -8 -213q-5 -199 -5 -283q0 -71 3 -223q8 -430 -151 -559
q-84 -70 -226 -70q-37 0 -74.5 23.5t-37.5 64.5q0 25 22.5 41.5t42.5 16.5q10 0 20.5 -3t17.5 -6.5t16.5 -10.5t13.5 -10t12 -12t10 -12q23 -23 64 -22q96 0 111 489q1 27 1 41q4 116 4 260q0 155 -6 267z" />
    <glyph glyph-name="k" unicode="k" horiz-adv-x="1003" 
d="M166 211q6 211 5 516q0 335 -5 453q-4 106 -25.5 130.5t-99.5 28.5q-12 12 -6 39q172 14 262 52q27 0 27 -19q-6 -57 -9 -184q-5 -254 -4 -553q0 -105 1 -217q33 4 83 21.5t80 39.5q74 55 156 160q12 14 16 39.5t-14.5 52.5t-67.5 31q-8 10 -8 24.5t8 22.5q31 0 91.5 -5
t101.5 -5q37 0 87 5t83 5q23 -25 0 -47q-113 -12 -205 -111l-172 -176q-8 -8 -8 -20q0 -8 14 -27l258 -324q74 -94 168 -106q8 -8 8 -22.5t-8 -24.5q-98 10 -162 10q-31 0 -108 -10q-4 0 -8 10q-18 68 -76 143l-142 191q-33 45 -67.5 60t-107.5 16q2 -130 3 -199
q2 -117 26 -143.5t116 -30.5q23 -23 0 -47q-37 0 -104.5 5t-112.5 5t-113 -5t-102 -5q-8 8 -9.5 22.5t9.5 24.5q92 4 115.5 30.5t25.5 143.5z" />
    <glyph glyph-name="l" unicode="l" horiz-adv-x="518" 
d="M190 211q6 211 6 516q0 335 -6 453q-4 106 -25.5 130.5t-98.5 28.5q-12 12 -7 39q172 14 263 52q27 0 26 -19q-6 -57 -8 -184q-5 -254 -5 -553q0 -267 5 -463q2 -117 25.5 -143.5t115.5 -30.5q23 -23 0 -47q-37 0 -104.5 5t-112.5 5t-112.5 -5t-102.5 -5q-8 8 -9 22.5
t9 24.5q92 4 115.5 30.5t25.5 143.5z" />
    <glyph glyph-name="m" unicode="m" horiz-adv-x="1579" 
d="M369 641q-31 -31 -33 -82q-6 -174 0 -346q4 -117 22.5 -142.5t94.5 -33.5q23 -25 0 -47q-133 10 -189 10q-70 0 -207 -10q-8 10 -8 24.5t8 22.5q84 6 106.5 33.5t26.5 142.5q8 213 0 426q-4 84 -24.5 104.5t-102.5 28.5q-10 16 -4 35q176 25 260 55q25 0 25 -14
q-10 -90 -10 -150q0 -20 20 0q152 160 310 160q74 0 126 -41t66 -102q4 -18 21 -2q139 145 337 145q119 0 162 -82t37 -229q-6 -168 0 -334q4 -117 23.5 -143.5t101.5 -32.5q20 -23 0 -47q-129 10 -196.5 10t-194.5 -10q-20 23 0 47q78 6 97.5 32.5t23.5 143.5q8 184 0 369
q-6 174 -125 174q-156 0 -273 -129q4 -39 2 -78q-6 -168 0 -336q4 -117 22.5 -143.5t94.5 -32.5q20 -23 0 -47q-123 10 -188 10q-86 0 -195 -10q-20 25 0 47q80 6 98.5 31.5t22.5 144.5q8 182 0 365q-8 178 -133 178q-106 0 -225 -115z" />
    <glyph glyph-name="n" unicode="n" horiz-adv-x="1075" 
d="M358 698q143 160 342 160q115 0 166 -67q39 -54 40 -174q0 -27 -3 -89q-6 -158 0 -315q4 -117 25.5 -142.5t105.5 -33.5q20 -23 0 -47q-39 0 -98 5t-102 5q-41 0 -100.5 -5t-96.5 -5q-20 25 0 47q78 8 97.5 33.5t23.5 142.5q6 172 0 342q-4 123 -21 152q-35 70 -104 69
q-59 0 -132 -31.5t-126 -82.5q-31 -35 -33 -82q-6 -123 0 -367q2 -117 20.5 -142.5t96.5 -33.5q8 -8 8 -22.5t-8 -24.5q-37 0 -91.5 5t-95.5 5q-47 0 -112.5 -5t-98.5 -5q-8 10 -8 24.5t8 22.5q90 8 113 33.5t25 142.5q6 248 0 426q-2 84 -24.5 104.5t-102.5 28.5
q-8 23 -4 35q172 23 258 55q25 0 24 -14q-10 -90 -10 -150q0 -25 18 0z" />
    <glyph glyph-name="o" unicode="o" horiz-adv-x="987" 
d="M82 399q0 195 108 322q117 137 306 137q141 0 237 -69.5t134 -165t38 -205.5q0 -203 -127 -328q-115 -111 -286 -110q-195 0 -302.5 126.5t-107.5 292.5zM467 811q-121 0 -175 -108.5t-54 -258.5q0 -84 26.5 -175t94 -166.5t161.5 -75.5q84 0 157 81.5t73 247.5
q0 209 -78 332t-205 123z" />
    <glyph glyph-name="p" unicode="p" horiz-adv-x="1007" 
d="M342 672q-29 -35 -31 -107l-4 -360q0 -94 49 -137q47 -41 129 -41q102 0 171 69.5t93.5 154.5t24.5 175q0 172 -69.5 267t-169.5 95q-99 1 -193 -116zM326 719q106 139 257.5 139t249 -105.5t97.5 -273.5q0 -248 -146 -389q-117 -111 -286 -110q-82 0 -160 30
q-31 12 -31 -14q0 -176 4 -279q4 -119 29 -145.5t131 -32.5q20 -23 0 -43q-35 0 -108.5 5t-122.5 5q-45 0 -111 -5t-100 -5q-20 20 0 43q90 4 112.5 32t26.5 146q4 78 4 461t-4 461q-4 82 -25.5 103.5t-101.5 29.5q-8 23 -4 35q162 23 252 55q25 0 24 -12q-6 -55 -6 -125
q0 -10 7.5 -11t11.5 5z" />
    <glyph glyph-name="q" unicode="q" horiz-adv-x="983" 
d="M629 739q-66 72 -154 72q-115 0 -183.5 -106.5t-68.5 -262.5q0 -199 95.5 -298t201.5 -99q80 0 129 27q31 14 31 78q0 348 -4 450q-4 92 -47 139zM676 -285l4 285q0 20 -5 26.5t-16.5 2.5t-35.5 -19q-49 -31 -150 -30q-193 0 -299 133t-106 290q0 195 117.5 325
t295.5 130q135 0 221 -57q18 -8 21.5 -6t24.5 30q27 37 40 37q31 0 29 -47q-2 -76 -2 -549t2 -551q4 -119 26.5 -145.5t114.5 -30.5q20 -23 0 -43q-37 0 -101 5t-109.5 5t-112 -5t-100.5 -5q-23 20 0 43q92 4 114.5 30.5t26.5 145.5z" />
    <glyph glyph-name="r" unicode="r" horiz-adv-x="731" 
d="M207 639q-2 80 -24.5 102.5t-102.5 30.5q-10 16 -4 35q145 20 241 55q20 0 25 -12q6 -18 6 -137q0 -27 9 -26q3 1 8 7q109 164 217 164q63 0 90.5 -28.5t27.5 -65.5t-27.5 -63.5t-64.5 -26.5q-47 0 -82 63q-10 18 -38.5 18.5t-90.5 -104.5q-43 -74 -47 -141
q-6 -127 0 -297q2 -63 6 -94t25.5 -49.5t44.5 -22.5t84 -10q23 -25 0 -47q-168 10 -231 10q-61 0 -216 -10q-23 23 0 47q94 8 117 33.5t27 142.5q8 211 0 426z" />
    <glyph glyph-name="s" unicode="s" horiz-adv-x="765" 
d="M94 258q20 20 39 2q33 -131 86 -182q53 -53 150 -53q59 0 115.5 45t56.5 112q0 63 -42 104.5t-163 92.5q-115 49 -165 104.5t-50 155.5t79 159.5t197 59.5q45 0 92.5 -7t96.5 -18.5t65 -13.5q-4 -127 -10 -196q-20 -20 -43 -2q-29 193 -201 192q-59 0 -102 -43t-43 -102
q0 -72 48 -111t155 -80q113 -43 171 -100.5t58 -149.5q0 -68 -33 -119t-83 -77.5t-100 -38.5t-95 -12q-94 0 -178 22q-14 4 -39 4q-18 0 -50 -6q0 113 -12 258z" />
    <glyph glyph-name="t" unicode="t" horiz-adv-x="614" 
d="M96 838h90q0 96 -1 156.5t-3 84t-2 27.5q0 10 8.5 15t29 11.5t30.5 10.5q12 4 28.5 13t28.5 15.5t19 6.5q14 0 14 -19q-6 -78 -8 -205l-2 -116h235q14 0 15 -13v-22q0 -25 -48 -25h-202q-16 -371 -11 -530q4 -100 16.5 -140t49.5 -40q82 0 174 69q16 -4 21 -28
q-115 -129 -265 -129q-137 0 -137 194q0 53 5 275.5t5 328.5h-114q-10 0 -11 13v18q0 29 35 29z" />
    <glyph glyph-name="u" unicode="u" horiz-adv-x="1038" 
d="M403 -20q-242 0 -231 266q8 201 0 401q-4 94 -26.5 121t-94.5 33q-23 23 0 47q143 -4 187 -4q47 0 67 4q16 0 17 -12q-6 -121 -9 -181q-8 -190 0 -383q6 -135 33 -178t115 -43q37 0 100.5 34t116.5 81q4 4 12 11t10 8t4.5 7.5t3.5 11.5t1 17q8 211 0 422q-4 96 -27 125
t-94 33q-23 23 0 47q143 -4 186 -4q49 0 70 4q14 0 14 -12q-6 -121 -8 -181q-8 -211 0 -422q4 -78 29.5 -106.5t113.5 -36.5q14 -16 0 -31q-139 -16 -217 -79q-23 -6 -37 0q-23 72 -22 116q-2 10 -11.5 9t-17.5 -7q-148 -118 -285 -118z" />
    <glyph glyph-name="v" unicode="v" horiz-adv-x="972" 
d="M643 801q-8 10 -8 24.5t8 22.5q31 0 83 -5t91 -5q29 0 73 5t60 5q8 -8 8 -22.5t-8 -24.5q-18 -2 -32.5 -5t-27.5 -11.5t-22.5 -12.5t-19.5 -17.5t-15.5 -18.5t-13.5 -23.5t-11 -24.5t-12.5 -28.5t-11.5 -26.5l-260 -613q-18 -43 -47 -43q-33 0 -49 41l-250 617
q-20 50 -28 68t-26.5 45t-42 37.5t-58.5 14.5q-9 9 -9.5 23.5t9.5 23.5q35 -1 84 -5t77 -4q35 0 101.5 4t97.5 5q9 -9 9 -23.5t-9 -23.5q-22 -2 -38 -6t-26 -8t-14 -14.5t-6 -16t2 -21.5t6.5 -24t11.5 -30.5l13 -32.5l141 -377q18 -51 30.5 -65.5t25 -1t32.5 60.5l158 383
q33 74 16.5 111t-92.5 43z" />
    <glyph glyph-name="w" unicode="w" horiz-adv-x="1460" 
d="M397 801q-68 -4 -83 -44t16 -110l155 -403q12 -33 23.5 -42t23 2t23.5 44l135 332l-16 45q-4 8 -10.5 28.5t-10.5 28.5t-10 25.5t-11 24.5t-14.5 20.5t-17.5 19.5t-19.5 13.5t-25.5 10.5t-31 5q-8 10 -8 24.5t8 22.5q35 0 87.5 -5t82.5 -5q29 0 96.5 5t100.5 5
q23 -25 0 -47q-76 -6 -93.5 -40t13.5 -104l168 -428q10 -29 20.5 -34t18.5 5.5t18 37.5l164 407q12 35 17.5 54.5t1 45t-32 40t-80.5 16.5q-8 10 -8 24.5t8 22.5q31 0 91 -5t101 -5q39 0 80 5t58 5q23 -25 0 -47q-47 -2 -81 -30t-48.5 -54.5t-36.5 -79.5l-254 -619
q-18 -41 -45 -41q-29 0 -47 39l-201 484l-199 -480q-20 -43 -45 -43q-29 0 -47 39l-256 631q-33 84 -61.5 115t-94.5 39q-8 10 -8 24.5t8 22.5q16 0 77 -5t95.5 -5t104.5 5t100 5q8 -8 8 -22.5t-8 -24.5z" />
    <glyph glyph-name="x" unicode="x" horiz-adv-x="993" 
d="M360 698l125 -174q18 -16 31.5 -15t22.5 11l133 176q68 90 -45 105q-8 10 -8.5 24.5t8.5 22.5q37 0 88 -5t84 -5q37 0 84 5t65 5q23 -25 0 -47q-119 -10 -219 -131l-172 -209q-8 -14 2 -29l184 -248q100 -135 228 -147q8 -8 8 -22.5t-8 -24.5q-35 0 -83 5t-89 5
t-105.5 -5t-97.5 -5q-23 23 0 47q53 8 56 29.5t-50 97.5l-119 155q-20 27 -43 -4l-129 -176q-29 -45 -17.5 -70.5t56.5 -31.5q23 -25 0 -47q-35 0 -83 5t-89 5q-39 0 -75.5 -5t-71.5 -5q-23 23 0 47q115 6 219 133l172 211q4 4 4 8t-2 7t-6 7.5t-6 6.5l-179 247
q-96 135 -194 144q-23 23 0 47q37 0 86 -5t80 -5q33 0 102.5 5t104.5 5q23 -25 0 -47q-68 -10 -78.5 -29t26.5 -74z" />
    <glyph glyph-name="y" unicode="y" horiz-adv-x="1013" 
d="M379 -354q-78 -139 -189 -140q-39 0 -65.5 20.5t-26.5 51.5q0 23 20.5 45.5t59.5 22.5q10 0 29.5 -5.5t34.5 -5.5q72 0 112 78q59 129 78 181q33 86 -26 223l-222 514q-41 98 -71.5 131t-92.5 39q-8 10 -8 24.5t8 22.5q96 -10 158 -10q68 0 221 10q23 -25 0 -47
q-57 -4 -76.5 -26.5t-14.5 -49.5t26 -76l174 -405q16 -41 26.5 -51.5t20.5 0t27 49.5l194 448q20 47 -13.5 76t-86.5 35q-8 10 -8 24.5t8 22.5q106 -10 178 -10q57 0 139 10q23 -25 0 -47q-49 -4 -98 -51.5t-72 -98.5q-123 -260 -362 -837q-39 -90 -82 -168z" />
    <glyph glyph-name="z" unicode="z" horiz-adv-x="839" 
d="M150 858q12 -2 29.5 -8t37 -9t47.5 -3h330q25 0 53.5 1t48 2t21.5 1q23 0 22 -15q0 -16 -34 -71q-342 -563 -459 -711h270q70 0 109 40t82 130l28 57q18 0 37 -12q-23 -152 -61 -266l-578 6q-45 0 -45 23q0 16 18 40q176 238 469 730l-266 -7q-104 -2 -157 -198
q-20 -6 -43 6q27 156 28 252q0 2 5.5 7t7.5 5z" />
    <glyph glyph-name="braceleft" unicode="{" horiz-adv-x="546" 
d="M340 1151l20 -360q6 -123 -32.5 -186.5t-120.5 -98.5q90 -39 126 -109.5t27 -201.5l-20 -326q-8 -121 43 -187.5t125 -66.5q8 -8 8 -24.5t-8 -24.5q-166 0 -234.5 67.5t-56.5 266.5l21 348q6 88 -40 154.5t-128 86.5v31q82 25 127 92.5t41 145.5l-21 377
q-10 172 60.5 242.5t230.5 70.5q8 -10 8 -24.5t-8 -24.5q-180 -35 -168 -248z" />
    <glyph glyph-name="bar" unicode="|" horiz-adv-x="419" 
d="M256 -475h-90v1905h90v-1905z" />
    <glyph glyph-name="braceright" unicode="}" horiz-adv-x="546" 
d="M207 -139l-21 360q-6 123 33 186.5t121 98.5q-90 39 -126 109.5t-28 201.5l21 326q8 121 -43 187.5t-125 66.5q-10 8 -10 24.5t10 24.5q166 0 234.5 -68.5t56.5 -265.5l-21 -348q-6 -88 40 -154.5t128 -87.5v-30q-82 -25 -127 -92.5t-41 -145.5l21 -377
q10 -172 -60.5 -242.5t-230.5 -70.5q-10 10 -10 24.5t10 24.5q180 35 168 248z" />
    <glyph glyph-name="asciitilde" unicode="~" horiz-adv-x="919" 
d="M53 428q20 104 96 183t166 79q66 0 154 -65q92 -68 147 -68q53 0 112.5 34t90.5 103q25 0 35 -12q-29 -100 -82 -159.5t-91 -73t-73 -13.5q-66 0 -155 68q-88 66 -150 65q-55 0 -117.5 -42t-97.5 -107q-19 0 -35 8z" />
    <glyph glyph-name="uni00A0" unicode="&#xa0;" horiz-adv-x="512" 
 />
    <glyph glyph-name="exclamdown" unicode="&#xa1;" horiz-adv-x="589" 
d="M295 -469q-41 0 -73 37t-32 113q0 59 7.5 115.5t19.5 135t21 144.5q10 96 17 183t9 134t4 56q4 41 26.5 40.5t27.5 -26.5q2 -12 6 -78t11 -153t15 -156q6 -59 25.5 -186.5t19.5 -208.5q0 -76 -31.5 -113t-72.5 -37zM397 782q0 -37 -34.5 -67.5t-71.5 -30.5
q-39 0 -68.5 34t-29.5 73q0 35 32.5 66.5t73.5 31.5q37 0 67.5 -33t30.5 -74z" />
    <glyph glyph-name="cent" unicode="&#xa2;" 
d="M475 1231h64v-217q129 -2 207.5 -51.5t78.5 -125.5q0 -40 -27.5 -60.5t-61.5 -20.5q-31 0 -48.5 14t-22.5 52q-15 136 -126 147v-717q9 -1 17 -1q60 0 128 38t114 98q11 -1 14.5 -2t7 -4.5t7.5 -12.5q-110 -179 -288 -188v-207h-64v208q-156 13 -246.5 123t-90.5 280
q0 169 101 286t236 140v221zM475 266v698q-81 -23 -135 -115.5t-54 -223.5q0 -137 52.5 -231.5t136.5 -127.5z" />
    <glyph glyph-name="sterling" unicode="&#xa3;" horiz-adv-x="931" 
d="M145 614q-12 0 -12 13q0 4 3 14t15.5 21.5t28.5 11.5h99v61q0 129 34.5 220.5t114.5 174.5q111 121 260 121q47 0 101.5 -25.5t54.5 -74.5q0 -39 -22.5 -61.5t-57.5 -22.5q-12 0 -23.5 7t-29 26.5t-19.5 21.5q-47 47 -96 47q-68 0 -115 -97t-47 -232v-166h242
q14 0 14 -33q0 -27 -45 -27h-211q-2 -293 -147 -438q104 0 163.5 -26.5t99.5 -53t93 -26.5q49 0 106.5 29.5t94.5 80.5q25 -2 35 -22q-37 -82 -108 -131.5t-163 -49.5q-88 0 -176 61.5t-174 61.5q-78 0 -78 -51q0 -35 -22.5 -53.5t-55.5 -18.5q-29 0 -50 16.5t-21 41.5
q0 6 1 12t5 12.5t7 10.5t11 10t12.5 9t14.5 9t15 9.5t17.5 10.5t16.5 9q147 113 148 448v39h-134z" />
    <glyph glyph-name="currency" unicode="&#xa4;" 
d="M221 625q0 -121 69.5 -205t182.5 -84q111 0 181.5 84t70.5 203q0 121 -73.5 204.5t-174.5 83.5q-111 0 -183.5 -83.5t-72.5 -202.5zM473 244q-127 0 -233 78l-93 -115l-88 88l117 92q-86 104 -86 236q0 135 86 237l-113 90l80 86l99 -110q106 76 231 75q131 0 236 -79
l100 118l84 -88l-119 -96q82 -100 82 -233q0 -127 -80 -232l113 -94l-78 -82l-98 109q-108 -80 -240 -80z" />
    <glyph glyph-name="yen" unicode="&#xa5;" 
d="M397 250v55h-295q-12 0 -12 14v3q0 33 49 32h258v174h-295q-12 0 -12 13q0 4 3 13t15.5 18.5t30.5 9.5h250l-219 448q-35 74 -71 115t-93 47q-23 25 0 47q35 -2 99.5 -6t78.5 -4q4 0 36 2t75 5t72 3q23 -23 0 -47q-113 0 -62 -105l219 -450h4l158 360q35 82 44 118
t-7 54.5t-68 22.5q-8 8 -8 22.5t8 24.5q35 -2 90.5 -6t72 -4t56 4t74.5 6q23 -23 -4 -47q-25 -2 -40 -5t-30.5 -13.5t-22.5 -14.5t-19.5 -26.5l-17.5 -31.5t-21.5 -47t-24.5 -57l-188 -415h270q16 0 16 -13v-12q0 -29 -51 -29h-256v-174h291q16 0 16 -12v-8q0 -29 -51 -29
h-256v-55q0 -133 38 -171t171 -42q23 -25 0 -47q-45 0 -135 5t-152 5q-63 0 -156.5 -5t-136.5 -5q-8 10 -8 24.5t8 22.5q133 4 171 42t38 171z" />
    <glyph glyph-name="brokenbar" unicode="&#xa6;" horiz-adv-x="432" 
d="M266 1380v-741h-100v741h100zM266 330v-742h-100v742h100z" />
    <glyph glyph-name="section" unicode="&#xa7;" horiz-adv-x="968" 
d="M268 848q-58 55 -81 111t-23 128q0 109 84 185t235 76q135 0 207 -67t72 -140q0 -78 -62 -78q-31 0 -53 25.5t-31 58.5q-41 154 -145 153q-70 0 -121 -58t-51 -132q0 -139 193 -244q8 -4 53 -27.5t58 -31.5t54 -31.5t56.5 -39t47.5 -42t45 -51.5t30.5 -56.5t23.5 -68.5
t6 -78q0 -165 -160 -298q56 -54 77.5 -109t21.5 -125q0 -109 -84 -184.5t-236 -75.5q-135 0 -206.5 66.5t-71.5 140.5q0 78 67 77q55 0 78 -84q41 -154 146 -153q70 0 121 59.5t51 132.5q0 139 -193 244q-8 4 -53 27.5t-58.5 32t-54.5 32t-56 38.5t-47 42t-45 51.5t-30.5 56
t-24 68.5t-6.5 78q1 152 166 291zM669 174q38 36 62.5 87.5t24.5 98.5q0 55 -20.5 103.5t-41 78t-73 68.5t-76 53.5t-90.5 53.5q-92 53 -150 99q-92 -88 -92 -181q0 -55 20.5 -103.5t41 -78t72.5 -68.5t75.5 -53.5t91.5 -52.5q96 -57 155 -105z" />
    <glyph glyph-name="dieresis" unicode="&#xa8;" horiz-adv-x="776" 
d="M102 1178q0 41 29 69.5t68 28.5t67.5 -28.5t28.5 -69.5q0 -39 -28.5 -68t-67.5 -29t-68 29t-29 68zM449 1178q0 41 28.5 69.5t67.5 28.5t67.5 -28.5t28.5 -69.5q0 -39 -27.5 -68t-68.5 -29t-68.5 29t-27.5 68z" />
    <glyph glyph-name="copyright" unicode="&#xa9;" horiz-adv-x="1423" 
d="M899 442q-35 -53 -99.5 -92t-142.5 -39q-123 0 -208 72q-111 92 -111 240q0 125 74 207q94 105 250 106q63 0 107 -6t71.5 -14.5t40.5 -10.5q4 -74 0 -170q-14 -8 -41 -8q-31 84 -69 123t-118 39q-74 0 -126 -57.5t-52 -194.5q0 -113 57.5 -189.5t143.5 -76.5
q115 0 184 102q21 -6 39 -31zM657 47q-242 0 -414.5 171t-172.5 409q0 240 174 408.5t413.5 168.5t413.5 -169t174 -408.5t-174 -409.5t-414 -170zM657 1139q-215 0 -360 -148.5t-145 -363.5q0 -213 146 -363.5t359 -150.5q211 0 358.5 150.5t147.5 363.5
q0 215 -146.5 363.5t-359.5 148.5z" />
    <glyph glyph-name="ordfeminine" unicode="&#xaa;" horiz-adv-x="628" 
d="M393 1028q-129 -33 -176 -64.5t-47 -80.5q0 -84 92 -84q55 0 131 67v162zM481 733q-35 0 -57.5 24.5t-28.5 55.5q-53 -47 -89 -63.5t-85 -16.5q-66 0 -112 40t-46 104q0 123 211 176l119 30q0 170 -110 170q-51 0 -81 -15t-30 -40q0 -18 4 -26.5t4 -24.5q0 -14 -13 -28.5
t-40 -14.5q-23 0 -38 14.5t-15 36.5q0 57 71.5 103.5t141.5 46.5q217 0 217 -234v-153q0 -117 28 -117q14 0 25 10q23 -8 21 -33q-42 -45 -97 -45z" />
    <glyph glyph-name="guillemotleft" unicode="&#xab;" horiz-adv-x="1112" 
d="M307 440q121 137 260 348q-8 35 -37 39q-209 -225 -378 -374v-25q170 -150 378 -375q29 4 37 39q-139 211 -260 348zM676 440q121 137 260 348q-8 35 -37 39q-209 -225 -379 -374v-25q170 -150 379 -375q29 4 37 39q-139 211 -260 348z" />
    <glyph glyph-name="logicalnot" unicode="&#xac;" horiz-adv-x="1226" 
d="M1022 203v459h-940q-14 51 0 90h1051v-549q-62 -23 -111 0z" />
    <glyph glyph-name="uni00AD" unicode="&#xad;" horiz-adv-x="692" 
d="M555 473h-442h-5q-26 0 -26 19q0 27 16.5 49t34.5 22h449q12 0 17 -1t8 -5t3 -14q0 -20 -18.5 -45t-36.5 -25z" />
    <glyph glyph-name="registered" unicode="&#xae;" horiz-adv-x="1423" 
d="M770 758q0 104 -102 104q-37 0 -59.5 -20.5t-22.5 -48.5v-154h86q49 0 73.5 25.5t24.5 93.5zM539 907q14 0 69.5 2t77.5 2q102 0 148.5 -47t46.5 -106q0 -57 -33 -96t-84 -56l98 -168q35 -59 88 -49q12 -12 8 -35q-35 -14 -73 -14q-80 0 -125 78l-98 164q-10 8 -76 8
v-115q0 -49 15 -64.5t67 -19.5q6 -6 6 -24.5t-6 -24.5q-74 4 -129 4q-57 0 -131 -4q-6 6 -6.5 24.5t6.5 24.5q51 4 66 19.5t15 64.5v303q0 49 -15 64.5t-66 19.5q-6 6 -6.5 24.5t6.5 24.5q74 -4 131 -4zM657 47q-242 0 -414.5 171t-172.5 409q0 240 174 408.5t413.5 168.5
t413.5 -169t174 -408.5t-174 -409.5t-414 -170zM657 1139q-215 0 -360 -148.5t-145 -363.5q0 -213 146 -363.5t359 -150.5q211 0 358.5 150.5t147.5 363.5q0 215 -146.5 363.5t-359.5 148.5z" />
    <glyph glyph-name="macron" unicode="&#xaf;" horiz-adv-x="813" 
d="M645 1083h-500q-25 0 -24 31q0 20 13 40t32 20h500q29 0 28 -29q0 -20 -15.5 -41t-33.5 -21z" />
    <glyph glyph-name="degree" unicode="&#xb0;" horiz-adv-x="546" 
d="M408 1040q0 57 -35 102.5t-98.5 45.5t-99.5 -44t-36 -104q0 -57 37 -99t98 -42q59 0 96.5 43t37.5 98zM70 1042q0 86 60 146.5t144 60.5t143.5 -60.5t59.5 -146.5q0 -84 -59.5 -144t-143.5 -60t-144 60t-60 144z" />
    <glyph glyph-name="plusminus" unicode="&#xb1;" horiz-adv-x="1079" 
d="M584 694h360v-90h-360v-360h-95v360h-354v90h354v363h95v-363zM944 133v-90h-809v90h809z" />
    <glyph glyph-name="two.superior" unicode="&#xb2;" horiz-adv-x="628" 
d="M150 1202q-18 0 -36 15.5t-18 33.5q0 53 55.5 105.5t163.5 52.5q90 0 156 -40t66 -130q0 -66 -44 -121t-139 -123q-104 -76 -135 -184h170q23 0 41.5 11.5t32.5 38t21.5 40.5t19.5 47q33 0 49 -10q-14 -113 -39 -193h-422q0 125 176 261q78 63 110 109t32 122
q0 111 -103 111q-80 0 -98 -43q-4 -10 -4 -31v-29q-8 -43 -55 -43z" />
    <glyph glyph-name="three.superior" unicode="&#xb3;" horiz-adv-x="628" 
d="M381 1278q0 37 -23.5 53.5t-54.5 16.5t-63.5 -13.5t-42.5 -36.5q-2 -4 -6.5 -18t-7.5 -20.5t-14 -13.5t-28 -7q-18 0 -29.5 8t-14.5 16.5t-3 12.5q0 23 19.5 50.5t76 55t138.5 27.5q80 0 127 -31.5t47 -89.5q0 -82 -105 -139q61 -6 112.5 -52t51.5 -128q0 -104 -80 -170
t-205 -66q-58 0 -128 22.5t-70 65.5q0 20 15.5 32.5t35.5 12.5q43 0 61 -35q18 -37 95 -36q59 0 104 34.5t45 122.5q0 125 -153 125q-8 0 -41 -4q-14 18 -4 55q145 21 145 150z" />
    <glyph glyph-name="acute" unicode="&#xb4;" horiz-adv-x="698" 
d="M358 1333q12 4 29 4q63 0 113 -47l6 -22l-236 -224q-39 -39 -61 -38q-10 0 -19.5 8t-9.5 18q0 20 24 58z" />
    <glyph glyph-name="uni00B5" unicode="&#xb5;" horiz-adv-x="995" 
d="M659 123q-121 -143 -282 -143q-88 0 -127 47q-25 0 -25 -19q0 -72 33 -198.5t33 -165.5q0 -59 -23.5 -91t-60.5 -32q-31 0 -71 38t-40 95q0 49 16.5 155.5t16.5 174.5q0 27 -9 126t-9 164v385l-21 220q27 0 89.5 9t78.5 11q6 -131 6 -197v-401q0 -229 142 -229
q74 0 147.5 45t110.5 102v660q29 0 86 9t67 11v-651q0 -59 3 -91t22.5 -59.5t56.5 -27.5q29 0 47.5 16t20.5 16q6 0 14 -10t8 -20q0 -8 -20.5 -28.5t-62.5 -42t-87 -21.5q-139 0 -155 143h-5z" />
    <glyph glyph-name="pilcrow" unicode="&#xb6;" horiz-adv-x="1232" 
d="M752 1176v-1506q0 -78 82 -78q84 0 84 78v1506q0 78 -84 77q-82 1 -82 -77zM836 1321q266 0 362 4l4 -4v-39q0 -14 -16 -16l-53 -4q-63 -4 -88 -22.5t-25 -63.5v-1506q0 -45 24.5 -63.5t88.5 -22.5l53 -4q16 -2 16 -16v-39l-4 -4q-98 4 -362 4q-262 0 -363 -4l-4 4v39
q0 14 14 16l56 4q63 4 86.5 23.5t23.5 62.5v914q-27 -6 -65 -6q-227 0 -347 102t-120 305q0 135 100 237.5t289 102.5q88 0 201 -2t129 -2z" />
    <glyph glyph-name="periodcentered" unicode="&#xb7;" horiz-adv-x="512" 
d="M256 418q-43 0 -77 33.5t-34 76.5t34 77t77 34t77 -34t34 -77t-34 -76.5t-77 -33.5z" />
    <glyph glyph-name="cedilla" unicode="&#xb8;" horiz-adv-x="1107" 
d="M618 -197q-53 0 -92 -12l-12 12l82 197h70l-52 -137q25 6 54 6q63 0 104 -35t41 -92q0 -66 -62.5 -109t-156.5 -43q-72 0 -152 35q0 33 21 53q78 -29 119 -28q47 0 75.5 21.5t28.5 60.5q0 71 -68 71z" />
    <glyph glyph-name="one.superior" unicode="&#xb9;" horiz-adv-x="628" 
d="M276 1270q-31 0 -116 -31q-20 16 -21 55q129 47 240 115q23 12 37 0v-489q0 -39 7 -61.5t24.5 -34t34 -14.5t46.5 -5q16 -31 0 -60q-61 2 -172 3q-135 0 -196 -3q-18 29 0 60q51 2 76.5 8t47 31.5t21.5 75.5v266q0 51 -5.5 67.5t-23.5 16.5z" />
    <glyph glyph-name="ordmasculine" unicode="&#xba;" horiz-adv-x="714" 
d="M80 879q0 125 78 202.5t209 77.5q127 0 198.5 -77.5t71.5 -190.5q0 -109 -75 -189.5t-210 -80.5q-115 0 -193.5 74.5t-78.5 183.5zM350 1112q-74 0 -112.5 -61.5t-38.5 -151.5q0 -86 46 -158.5t130 -72.5q53 0 98 46t45 144q0 121 -45 187.5t-123 66.5z" />
    <glyph glyph-name="guillemotright" unicode="&#xbb;" horiz-adv-x="1112" 
d="M805 440q-121 -137 -260 -348q8 -35 37 -39q209 225 379 375v25q-170 150 -379 374q-29 -4 -37 -39q139 -211 260 -348zM436 440q-121 -137 -260 -348q8 -35 37 -39q209 225 379 375v25q-170 150 -379 374q-29 -4 -37 -39q139 -211 260 -348z" />
    <glyph glyph-name="onequarter" unicode="&#xbc;" horiz-adv-x="1351" 
d="M1141 1231l84 -17l-938 -1341l-86 16zM1081 -12v49h-293l-8 24q147 213 316 447l63 -21q-51 -80 -149.5 -217t-116.5 -164h188v117q0 12 17 37q33 41 53 41q29 0 29 -20v-175h114l-12 -69h-102v-49q0 -57 22.5 -73.5t81.5 -20.5q16 -31 0 -60q-61 2 -155.5 2t-155.5 -2
q-18 29 0 60q66 4 87 19.5t21 74.5zM270 1169q-31 0 -116 -30q-20 16 -21 55q129 47 240 115q23 12 37 0v-490q0 -39 7 -61.5t24.5 -33.5t34 -14t46.5 -5q16 -31 0 -60q-61 2 -172 2q-135 0 -196 -2q-18 29 0 60q51 2 76.5 8t47 31.5t21.5 74.5v266q0 51 -5.5 67.5
t-23.5 16.5z" />
    <glyph glyph-name="onehalf" unicode="&#xbd;" horiz-adv-x="1351" 
d="M1090 1231l86 -17l-940 -1341l-84 16zM883 295q-18 0 -36 15.5t-18 33.5q0 53 55.5 105.5t164.5 52.5q90 0 155.5 -40t65.5 -130q0 -66 -44 -121t-139 -123q-104 -76 -135 -184h170q23 0 41.5 11t32.5 38t21.5 41t19.5 47q33 0 49 -10q-14 -113 -39 -193h-422
q0 125 176 260q78 63 110 109.5t32 122.5q0 111 -103 110q-80 0 -98 -43q-4 -10 -4 -30.5v-28.5q-8 -43 -55 -43zM274 1169q-31 0 -116 -30q-20 16 -21 55q129 47 240 115q23 12 37 0v-490q0 -39 7 -61.5t24.5 -33.5t34 -14t46.5 -5q16 -31 0 -60q-61 2 -172 2
q-135 0 -196 -2q-18 29 0 60q51 2 76.5 8t47 31.5t21.5 74.5v266q0 51 -5.5 67.5t-23.5 16.5z" />
    <glyph glyph-name="threequarters" unicode="&#xbe;" horiz-adv-x="1351" 
d="M1151 1231l84 -17l-938 -1341l-86 16zM377 1174q0 37 -23.5 53t-54.5 16t-63.5 -13t-42.5 -36q-2 -4 -6.5 -18.5t-7.5 -20.5t-14 -13t-28 -7q-18 0 -29.5 8t-14.5 16t-3 12q0 23 19.5 50.5t76 55.5t138.5 28q80 0 127 -32t47 -89q0 -82 -105 -140q61 -6 112.5 -52
t51.5 -128q0 -104 -80 -169.5t-205 -65.5q-58 0 -128 22.5t-70 64.5q0 20 15.5 33t35.5 13q43 0 61 -35q18 -37 95 -37q59 0 104 35t45 123q0 125 -154 125q-8 0 -40 -4q-14 18 -5 55q146 21 146 150zM1090 -8v49h-293l-9 25q147 213 316 446l63 -20q-51 -80 -149 -217.5
t-117 -163.5h189v116q0 12 16 37q33 41 53 41q29 0 29 -20v-174h115l-13 -70h-102v-49q0 -57 22.5 -73.5t81.5 -20.5q16 -31 0 -60q-61 2 -155.5 2t-155.5 -2q-18 29 0 60q66 4 87.5 19.5t21.5 74.5z" />
    <glyph glyph-name="questiondown" unicode="&#xbf;" horiz-adv-x="860" 
d="M668 -293q0 41 -11 53q-12 14 -12 50q0 33 22.5 52t53.5 19t55.5 -20.5t24.5 -67.5q0 -102 -99 -184q-90 -80 -243 -80q-150 0 -239 85t-89 224q0 76 39 142.5t74 98.5t100 81q82 63 102 102q27 55 27 150v90q0 20 33 20q31 0 31 -20v-94q0 -201 -136 -330
q-61 -59 -87.5 -110.5t-26.5 -121.5q0 -102 56 -184t136 -82t134.5 39t54.5 88zM608 782q0 -37 -34.5 -67.5t-71.5 -30.5q-39 0 -69 34t-30 73q0 35 33 66.5t74 31.5q37 0 67.5 -33t30.5 -74z" />
    <glyph glyph-name="Agrave" unicode="&#xc0;" horiz-adv-x="1431" 
d="M673 1675l248 -172q31 -22 31 -43q0 -12 -9.5 -21t-21.5 -9q-31 0 -88 24l-316 129q63 60 156 92zM534 569h366l-197 568h-6l-215 -530q-7 -16 6.5 -27t45.5 -11zM302 141q-5 -22 -6.5 -37t11.5 -26.5t24.5 -18.5t33.5 -11.5t39 -7t39 -3.5q9 -9 9.5 -23.5t-9.5 -23.5
q-29 1 -101.5 5.5t-119.5 4.5q-44 0 -107.5 -4.5t-95.5 -5.5q-9 9 -9 23.5t9 23.5q75 5 121.5 35t83.5 116l475 1119q38 0 107 41l428 -1192q13 -38 31.5 -61.5t46 -35t48 -15.5t58.5 -7q9 -9 9 -23.5t-9 -23.5q-27 1 -113.5 5.5t-134.5 4.5q-46 0 -144.5 -5t-123.5 -5
q-9 9 -9 23.5t9 23.5q7 0 20 1q22 1 32.5 2t28.5 3.5t27 5t21 7t16.5 10.5t9 14.5t3.5 20.5t-6 26l-130 377h-427q-34 0 -48.5 -11t-23.5 -34z" />
    <glyph glyph-name="Aacute" unicode="&#xc1;" horiz-adv-x="1431" 
d="M802 1679q88 -41 127 -106l-295 -119q-57 -25 -86 -24q-13 0 -22 9t-9 21q0 22 31 43zM534 569h366l-197 568h-6l-215 -530q-7 -16 6.5 -27t45.5 -11zM302 141q-5 -22 -6.5 -37t11.5 -26.5t24.5 -18.5t33.5 -11.5t39 -7t39 -3.5q9 -9 9.5 -23.5t-9.5 -23.5
q-29 1 -101.5 5.5t-119.5 4.5q-44 0 -107.5 -4.5t-95.5 -5.5q-9 9 -9 23.5t9 23.5q75 5 121.5 35t83.5 116l475 1119q38 0 107 41l428 -1192q13 -38 31.5 -61.5t46 -35t48 -15.5t58.5 -7q9 -9 9 -23.5t-9 -23.5q-27 1 -113.5 5.5t-134.5 4.5q-46 0 -144.5 -5t-123.5 -5
q-9 9 -9 23.5t9 23.5q7 0 20 1q22 1 32.5 2t28.5 3.5t27 5t21 7t16.5 10.5t9 14.5t3.5 20.5t-6 26l-130 377h-427q-34 0 -48.5 -11t-23.5 -34z" />
    <glyph glyph-name="Acircumflex" unicode="&#xc2;" horiz-adv-x="1431" 
d="M779 1655q90 -108 211 -199q-10 -34 -32 -43q-134 62 -217 125q-95 -70 -220 -125q-22 15 -28 43q83 63 207 199q35 22 79 0zM534 569h366l-197 568h-6l-215 -530q-7 -16 6.5 -27t45.5 -11zM302 141q-5 -22 -6.5 -37t11.5 -26.5t24.5 -18.5t33.5 -11.5t39 -7t39 -3.5
q9 -9 9.5 -23.5t-9.5 -23.5q-29 1 -101.5 5.5t-119.5 4.5q-44 0 -107.5 -4.5t-95.5 -5.5q-9 9 -9 23.5t9 23.5q75 5 121.5 35t83.5 116l475 1119q38 0 107 41l428 -1192q13 -38 31.5 -61.5t46 -35t48 -15.5t58.5 -7q9 -9 9 -23.5t-9 -23.5q-27 1 -113.5 5.5t-134.5 4.5
q-46 0 -144.5 -5t-123.5 -5q-9 9 -9 23.5t9 23.5q7 0 20 1q22 1 32.5 2t28.5 3.5t27 5t21 7t16.5 10.5t9 14.5t3.5 20.5t-6 26l-130 377h-427q-34 0 -48.5 -11t-23.5 -34z" />
    <glyph glyph-name="Atilde" unicode="&#xc3;" horiz-adv-x="1431" 
d="M874 1477q35 0 55 21.5t41 84.5q32 3 55 -12q-19 -95 -64 -149t-114 -54q-13 0 -26 3.5t-28 12t-24.5 14.5t-27.5 18.5t-25 17.5q-64 39 -111 39q-38 0 -58 -22.5t-36 -76.5q-38 -7 -55 10q48 201 164 201q18 0 34 -3.5t33.5 -13t26.5 -15t29 -20.5t24 -17
q52 -39 107 -39zM534 569h366l-197 568h-6l-215 -530q-7 -16 6.5 -27t45.5 -11zM302 141q-5 -22 -6.5 -37t11.5 -26.5t24.5 -18.5t33.5 -11.5t39 -7t39 -3.5q9 -9 9.5 -23.5t-9.5 -23.5q-29 1 -101.5 5.5t-119.5 4.5q-44 0 -107.5 -4.5t-95.5 -5.5q-9 9 -9 23.5t9 23.5
q75 5 121.5 35t83.5 116l475 1119q38 0 107 41l428 -1192q13 -38 31.5 -61.5t46 -35t48 -15.5t58.5 -7q9 -9 9 -23.5t-9 -23.5q-27 1 -113.5 5.5t-134.5 4.5q-46 0 -144.5 -5t-123.5 -5q-9 9 -9 23.5t9 23.5q7 0 20 1q22 1 32.5 2t28.5 3.5t27 5t21 7t16.5 10.5t9 14.5
t3.5 20.5t-6 26l-130 377h-427q-34 0 -48.5 -11t-23.5 -34z" />
    <glyph glyph-name="Adieresis" unicode="&#xc4;" horiz-adv-x="1431" 
d="M395 1446q0 41 30 69.5t68.5 28.5t68.5 -28.5t30 -69.5t-30 -69.5t-68.5 -28.5t-68.5 28.5t-30 69.5zM881 1446q0 41 28.5 69.5t69.5 28.5t69.5 -28.5t28.5 -69.5t-28.5 -69.5t-69.5 -28.5t-69.5 28.5t-28.5 69.5zM534 569h366l-197 568h-6l-215 -530q-7 -16 6.5 -27
t45.5 -11zM302 141q-5 -22 -6.5 -37t11.5 -26.5t24.5 -18.5t33.5 -11.5t39 -7t39 -3.5q9 -9 9.5 -23.5t-9.5 -23.5q-29 1 -101.5 5.5t-119.5 4.5q-44 0 -107.5 -4.5t-95.5 -5.5q-9 9 -9 23.5t9 23.5q75 5 121.5 35t83.5 116l475 1119q38 0 107 41l428 -1192
q13 -38 31.5 -61.5t46 -35t48 -15.5t58.5 -7q9 -9 9 -23.5t-9 -23.5q-27 1 -113.5 5.5t-134.5 4.5q-46 0 -144.5 -5t-123.5 -5q-9 9 -9 23.5t9 23.5q7 0 20 1q22 1 32.5 2t28.5 3.5t27 5t21 7t16.5 10.5t9 14.5t3.5 20.5t-6 26l-130 377h-427q-34 0 -48.5 -11t-23.5 -34z
" />
    <glyph glyph-name="Aring" unicode="&#xc5;" horiz-adv-x="1431" 
d="M534 569h366l-197 568h-6l-215 -530q-7 -16 6.5 -27t45.5 -11zM302 141q-5 -22 -6.5 -37t11.5 -26.5t24.5 -18.5t33.5 -11.5t39 -7t39 -3.5q9 -9 9.5 -23.5t-9.5 -23.5q-29 1 -101.5 5.5t-119.5 4.5q-44 0 -107.5 -4.5t-95.5 -5.5q-9 9 -9 23.5t9 23.5q75 5 121.5 35
t83.5 116l471 1108q-56 17 -93.5 63t-37.5 103q0 70 54.5 122t126 52t126 -51t54.5 -123q0 -49 -29 -92t-75 -65l413 -1149q13 -38 31.5 -61.5t46 -35t48 -15.5t58.5 -7q9 -9 9 -23.5t-9 -23.5q-27 1 -113.5 5.5t-134.5 4.5q-46 0 -144.5 -5t-123.5 -5q-9 9 -9 23.5t9 23.5
q7 0 20 1q22 1 32.5 2t28.5 3.5t27 5t21 7t16.5 10.5t9 14.5t3.5 20.5t-6 26l-130 377h-427q-34 0 -48.5 -11t-23.5 -34zM745 1571q-46 0 -72.5 -30.5t-26.5 -78.5q0 -45 26.5 -76.5t72 -31.5t72 31.5t26.5 76.5q0 48 -26.5 78.5t-71.5 30.5z" />
    <glyph glyph-name="AE" unicode="&#xc6;" horiz-adv-x="1824" 
d="M884 555h-384l-205 -393q-29 -53 21.5 -87t121.5 -38q8 -8 8 -22.5t-8 -24.5q-27 0 -111.5 5t-131.5 5q-43 0 -105.5 -5t-95.5 -5q-23 23 0 47q147 10 233 172l498 932q33 47 4 93t-127 50q-8 10 -8 24.5t8 22.5q45 0 183.5 -5t172.5 -5h612q22 0 37.5 2t34.5 6.5t28 5.5
q8 0 8 -6q16 -63 45 -303q-27 -13 -47 -10q-18 57 -27 82t-29 65t-40.5 57t-55 31.5t-79.5 14.5h-318q-35 0 -53.5 -25.5t-19.5 -64.5l-4 -447l237 2q67 1 102 5.5t54 23t23.5 39t7.5 69.5q9 9 23 9.5t24 -9.5q-1 -24 -6 -80.5t-5 -95.5q0 -33 5 -79.5t6 -80.5
q-9 -9 -23.5 -9t-23.5 9q-3 42 -8 61.5t-22.5 40.5t-55 28t-101.5 8l-237 2q-2 -360 4 -531q3 -88 73 -88h320q186 0 268 295q23 3 27.5 2t23.5 -12q-28 -176 -75 -348q-164 10 -263 10h-460q-31 0 -124 -4.5t-143 -5.5q-9 9 -9 23.5t9 23.5q61 3 89 7.5t51 24.5t30 54
t9 100q4 132 4 332zM880 1098q-1 56 -8 100t-14 47l-330 -631h356v43q0 283 -4 441z" />
    <glyph glyph-name="Ccedilla" unicode="&#xc7;" horiz-adv-x="1331" 
d="M743 -197q-53 0 -92 -12l-12 12l73 177q-159 1 -282.5 54t-199.5 145t-115 210t-39 256q0 297 184 500t481 203q147 0 287.5 -45.5t161.5 -47.5q31 -170 45 -317q-18 -12 -47 -10q-111 365 -457 364q-193 0 -332 -178t-139 -430q0 -156 51 -294t163 -232.5t263 -94.5
q143 0 255 52.5t220 171.5q31 0 48 -31q-91 -119 -215.5 -189t-260.5 -84l-45 -120q25 6 54 6q63 0 104 -35t41 -92q0 -66 -62.5 -109t-156.5 -43q-72 0 -152 35q0 33 21 53q78 -29 119 -28q47 0 75.5 21.5t28.5 60.5q0 71 -68 71z" />
    <glyph glyph-name="Egrave" unicode="&#xc8;" horiz-adv-x="1161" 
d="M470 1673l248 -172q31 -22 30 -43q0 -12 -9 -21.5t-21 -9.5q-31 0 -88 25l-316 129q63 60 156 92zM623 731q125 2 154.5 25.5t33.5 111.5q23 23 45 0q0 -20 -4 -78.5t-4 -97.5q0 -33 4 -80t4 -80q-23 -23 -45 0q-4 55 -13.5 79t-50 41.5t-124.5 17.5l-240 2
q-2 -358 4 -531q4 -88 76 -88h319q188 0 271 295q23 6 49 -10q-31 -193 -74 -348q-164 10 -262 10h-455q-31 0 -126 -5t-144 -5q-8 10 -8 24.5t8 22.5q113 4 142.5 33.5t33.5 152.5q4 168 4 434q0 272 -4 441q-4 123 -33.5 152.5t-142.5 33.5q-8 10 -8 24.5t8 22.5
q51 0 143 -5t123 -5h598q20 0 103 14q8 0 8 -6q16 -63 45 -303q-29 -14 -49 -10q-23 72 -35 101.5t-38 72.5t-63.5 59.5t-93.5 16.5h-319q-72 0 -76 -90l-4 -447z" />
    <glyph glyph-name="Eacute" unicode="&#xc9;" horiz-adv-x="1161" 
d="M685 1679q88 -41 127 -106l-295 -119q-57 -25 -86 -24q-13 0 -22 9t-9 21q0 22 31 43zM623 731q125 2 154.5 25.5t33.5 111.5q23 23 45 0q0 -20 -4 -78.5t-4 -97.5q0 -33 4 -80t4 -80q-23 -23 -45 0q-4 55 -13.5 79t-50 41.5t-124.5 17.5l-240 2q-2 -358 4 -531
q4 -88 76 -88h319q188 0 271 295q23 6 49 -10q-31 -193 -74 -348q-164 10 -262 10h-455q-31 0 -126 -5t-144 -5q-8 10 -8 24.5t8 22.5q113 4 142.5 33.5t33.5 152.5q4 168 4 434q0 272 -4 441q-4 123 -33.5 152.5t-142.5 33.5q-8 10 -8 24.5t8 22.5q51 0 143 -5t123 -5h598
q20 0 103 14q8 0 8 -6q16 -63 45 -303q-29 -14 -49 -10q-23 72 -35 101.5t-38 72.5t-63.5 59.5t-93.5 16.5h-319q-72 0 -76 -90l-4 -447z" />
    <glyph glyph-name="Ecircumflex" unicode="&#xca;" horiz-adv-x="1161" 
d="M613 1655q90 -108 211 -199q-10 -34 -33 -43q-134 62 -217 125q-95 -70 -219 -125q-22 15 -29 43q83 63 207 199q36 22 80 0zM623 731q125 2 154.5 25.5t33.5 111.5q23 23 45 0q0 -20 -4 -78.5t-4 -97.5q0 -33 4 -80t4 -80q-23 -23 -45 0q-4 55 -13.5 79t-50 41.5
t-124.5 17.5l-240 2q-2 -358 4 -531q4 -88 76 -88h319q188 0 271 295q23 6 49 -10q-31 -193 -74 -348q-164 10 -262 10h-455q-31 0 -126 -5t-144 -5q-8 10 -8 24.5t8 22.5q113 4 142.5 33.5t33.5 152.5q4 168 4 434q0 272 -4 441q-4 123 -33.5 152.5t-142.5 33.5
q-8 10 -8 24.5t8 22.5q51 0 143 -5t123 -5h598q20 0 103 14q8 0 8 -6q16 -63 45 -303q-29 -14 -49 -10q-23 72 -35 101.5t-38 72.5t-63.5 59.5t-93.5 16.5h-319q-72 0 -76 -90l-4 -447z" />
    <glyph glyph-name="Edieresis" unicode="&#xcb;" horiz-adv-x="1161" 
d="M693 1550q0 40 29 69.5t69 29.5t69.5 -29.5t29.5 -69.5t-29.5 -69t-69.5 -29t-69 29t-29 69zM306 1550q0 40 29 69.5t69 29.5t69.5 -29.5t29.5 -69.5t-29.5 -69t-69.5 -29t-69 29t-29 69zM623 731q125 2 154.5 25.5t33.5 111.5q23 23 45 0q0 -20 -4 -78.5t-4 -97.5
q0 -33 4 -80t4 -80q-23 -23 -45 0q-4 55 -13.5 79t-50 41.5t-124.5 17.5l-240 2q-2 -358 4 -531q4 -88 76 -88h319q188 0 271 295q23 6 49 -10q-31 -193 -74 -348q-164 10 -262 10h-455q-31 0 -126 -5t-144 -5q-8 10 -8 24.5t8 22.5q113 4 142.5 33.5t33.5 152.5
q4 168 4 434q0 272 -4 441q-4 123 -33.5 152.5t-142.5 33.5q-8 10 -8 24.5t8 22.5q51 0 143 -5t123 -5h598q20 0 103 14q8 0 8 -6q16 -63 45 -303q-29 -14 -49 -10q-23 72 -35 101.5t-38 72.5t-63.5 59.5t-93.5 16.5h-319q-72 0 -76 -90l-4 -447z" />
    <glyph glyph-name="Igrave" unicode="&#xcc;" horiz-adv-x="620" 
d="M204 1673l247 -172q31 -22 31 -43q0 -12 -9 -21.5t-22 -9.5q-31 0 -88 25l-315 129q63 60 156 92zM393 223q2 -66 8.5 -100t29.5 -54t50.5 -25t88.5 -7q9 -9 9.5 -23.5t-9.5 -23.5q-140 10 -264 10q-67 0 -266 -10q-9 9 -9 23.5t9 23.5q61 3 89 7.5t51.5 24t30.5 54.5
t8 100q6 254 6 434q0 184 -6 441q-1 44 -4 72t-13 49t-19 31.5t-34.5 17.5t-45 9.5t-63.5 6.5q-9 9 -9 23.5t9 23.5q164 -10 265 -10q76 0 265 10q9 -9 9.5 -23.5t-9.5 -23.5q-63 -4 -89 -9t-49.5 -24.5t-30 -53t-8.5 -99.5q-6 -207 -6 -443q0 -178 6 -432z" />
    <glyph glyph-name="Iacute" unicode="&#xcd;" horiz-adv-x="620" 
d="M369 1677q88 -41 127 -106l-294 -119q-57 -25 -86 -25q-13 0 -22 9.5t-9 21.5q0 22 31 43zM393 223q2 -66 8.5 -100t29.5 -54t50.5 -25t88.5 -7q9 -9 9.5 -23.5t-9.5 -23.5q-140 10 -264 10q-67 0 -266 -10q-9 9 -9 23.5t9 23.5q61 3 89 7.5t51.5 24t30.5 54.5t8 100
q6 254 6 434q0 184 -6 441q-1 44 -4 72t-13 49t-19 31.5t-34.5 17.5t-45 9.5t-63.5 6.5q-9 9 -9 23.5t9 23.5q164 -10 265 -10q76 0 265 10q9 -9 9.5 -23.5t-9.5 -23.5q-63 -4 -89 -9t-49.5 -24.5t-30 -53t-8.5 -99.5q-6 -207 -6 -443q0 -178 6 -432z" />
    <glyph glyph-name="Icircumflex" unicode="&#xce;" horiz-adv-x="620" 
d="M339 1655q90 -108 211 -199q-10 -34 -33 -43q-134 62 -217 125q-95 -70 -219 -125q-22 15 -29 43q83 63 207 199q36 22 80 0zM393 223q2 -66 8.5 -100t29.5 -54t50.5 -25t88.5 -7q9 -9 9.5 -23.5t-9.5 -23.5q-140 10 -264 10q-67 0 -266 -10q-9 9 -9 23.5t9 23.5
q61 3 89 7.5t51.5 24t30.5 54.5t8 100q6 254 6 434q0 184 -6 441q-1 44 -4 72t-13 49t-19 31.5t-34.5 17.5t-45 9.5t-63.5 6.5q-9 9 -9 23.5t9 23.5q164 -10 265 -10q76 0 265 10q9 -9 9.5 -23.5t-9.5 -23.5q-63 -4 -89 -9t-49.5 -24.5t-30 -53t-8.5 -99.5q-6 -207 -6 -443
q0 -178 6 -432z" />
    <glyph glyph-name="Idieresis" unicode="&#xcf;" horiz-adv-x="620" 
d="M406 1550q0 40 29.5 69.5t69.5 29.5t69 -29.5t29 -69.5t-29 -69t-69 -29t-69.5 29t-29.5 69zM19 1550q0 40 29.5 69.5t69 29.5t69 -29.5t29.5 -69.5t-29.5 -69t-69 -29t-69 29t-29.5 69zM393 223q2 -66 8.5 -100t29.5 -54t50.5 -25t88.5 -7q9 -9 9.5 -23.5t-9.5 -23.5
q-140 10 -264 10q-67 0 -266 -10q-9 9 -9 23.5t9 23.5q61 3 89 7.5t51.5 24t30.5 54.5t8 100q6 254 6 434q0 184 -6 441q-1 44 -4 72t-13 49t-19 31.5t-34.5 17.5t-45 9.5t-63.5 6.5q-9 9 -9 23.5t9 23.5q164 -10 265 -10q76 0 265 10q9 -9 9.5 -23.5t-9.5 -23.5
q-63 -4 -89 -9t-49.5 -24.5t-30 -53t-8.5 -99.5q-6 -207 -6 -443q0 -178 6 -432z" />
    <glyph glyph-name="Eth" unicode="&#xd0;" horiz-adv-x="1443" 
d="M553 680q8 0 12 -3t2 -9l-6 -35q-2 -16 -43 -17h-133q0 -186 8 -393q2 -55 8.5 -83.5t30 -55.5t71.5 -36t130 -9q115 0 209 27.5t174 88t125 169t45 258.5q0 98 -19.5 194t-65.5 188.5t-114.5 162t-173 112.5t-231.5 43q-47 0 -79 -3t-52.5 -17.5t-31.5 -22.5t-16.5 -38
t-6.5 -44t-3 -59q-8 -336 -8 -418h168zM303 1321q31 0 155 5t201 5q293 0 502 -206.5t209 -493.5q0 -145 -43 -260t-110.5 -184.5t-158.5 -115.5t-180.5 -63.5t-181.5 -17.5q-123 0 -245.5 5t-143.5 5q-57 0 -140 -5t-126 -5q-8 10 -8 24.5t8 22.5q113 4 143.5 33.5
t32.5 152.5q8 336 8 393h-180q-12 0 -10 13l4 22q4 29 45 29h141q0 86 -8 418q-2 123 -32.5 152.5t-143.5 33.5q-8 10 -8 24.5t8 22.5q45 0 126 -5t136 -5z" />
    <glyph glyph-name="Ntilde" unicode="&#xd1;" horiz-adv-x="1427" 
d="M815 1473q35 0 55.5 21.5t40.5 84.5q33 2 56 -12q-41 -203 -179 -203q-12 0 -25 3t-28.5 11t-25 14.5t-26.5 19.5t-26 18q-63 39 -110 38q-39 0 -58.5 -22.5t-35.5 -75.5q-39 -6 -56 10q47 201 164 201q18 0 33.5 -4t34 -13.5t27 -14.5t29 -20.5t24.5 -17.5
q51 -38 106 -38zM1136 1075q0 71 -6.5 109.5t-31 60t-51.5 27.5t-90 12q-9 9 -9 23.5t9 23.5q49 -1 112 -5.5t108 -4.5t109 4.5t112 5.5q9 -9 9 -23.5t-9 -23.5q-61 -6 -89.5 -13t-52.5 -28.5t-30 -59.5t-6 -108l-2 -1032v-12.5v-11.5t-0.5 -10t-1 -9t-1.5 -7t-3 -6t-4.5 -4
t-6 -2.5t-8.5 -0.5q-46 0 -82 49l-715 903q-52 68 -69 67q-27 0 -27 -100l2 -653q0 -71 6 -109.5t30.5 -60t51.5 -27.5t90 -12q9 -9 9 -23.5t-9 -23.5q-49 1 -112 5.5t-107 4.5q-45 0 -109 -4.5t-112 -5.5q-9 9 -9 23.5t9 23.5q61 6 89.5 13t52 28.5t30 59.5t6.5 108l2 880
q-40 143 -172 152q-9 9 -9 23.5t9 23.5l264 -4l703 -905q14 -18 31 -40.5t25 -33t17 -21t14.5 -14.5t10.5 -4q25 0 25 62z" />
    <glyph glyph-name="Ograve" unicode="&#xd2;" horiz-adv-x="1423" 
d="M617 1677l248 -172q31 -22 31 -43q0 -12 -9 -21t-22 -9q-31 0 -88 24l-315 129q62 60 155 92zM670 1298q-158 0 -285 -164.5t-127 -463.5q0 -283 147.5 -462t344.5 -179q178 0 296.5 168t118.5 438q0 301 -143 482t-352 181zM1350 674q0 -262 -123 -436
q-86 -123 -218.5 -190.5t-299.5 -67.5q-268 0 -451.5 180t-183.5 475q0 276 136 463q86 118 211.5 184t274.5 66q283 0 468.5 -182.5t185.5 -491.5z" />
    <glyph glyph-name="Oacute" unicode="&#xd3;" horiz-adv-x="1423" 
d="M787 1679q88 -41 127 -106l-294 -119q-57 -25 -86 -24q-13 0 -22 9t-9 21q0 22 31 43zM670 1298q-158 0 -285 -164.5t-127 -463.5q0 -283 147.5 -462t344.5 -179q178 0 296.5 168t118.5 438q0 301 -143 482t-352 181zM1350 674q0 -262 -123 -436q-86 -123 -218.5 -190.5
t-299.5 -67.5q-268 0 -451.5 180t-183.5 475q0 276 136 463q86 118 211.5 184t274.5 66q283 0 468.5 -182.5t185.5 -491.5z" />
    <glyph glyph-name="Ocircumflex" unicode="&#xd4;" horiz-adv-x="1423" 
d="M724 1655q90 -108 211 -199q-10 -34 -33 -43q-134 62 -217 125q-95 -70 -219 -125q-22 15 -29 43q83 63 207 199q36 22 80 0zM670 1298q-158 0 -285 -164.5t-127 -463.5q0 -283 147.5 -462t344.5 -179q178 0 296.5 168t118.5 438q0 301 -143 482t-352 181zM1350 674
q0 -262 -123 -436q-86 -123 -218.5 -190.5t-299.5 -67.5q-268 0 -451.5 180t-183.5 475q0 276 136 463q86 118 211.5 184t274.5 66q283 0 468.5 -182.5t185.5 -491.5z" />
    <glyph glyph-name="Otilde" unicode="&#xd5;" horiz-adv-x="1423" 
d="M794 1473q35 0 55 21.5t41 84.5q32 3 55 -12q-19 -95 -64 -149t-114 -54q-13 0 -26 3.5t-28 11.5t-24.5 14.5t-27.5 19t-25 17.5q-64 39 -111 38q-38 0 -58 -22t-36 -76q-38 -7 -55 10q48 201 164 201q18 0 34 -3.5t33.5 -13t26.5 -15t29 -20.5l24 -18q52 -38 107 -38z
M670 1298q-158 0 -285 -164.5t-127 -463.5q0 -283 147.5 -462t344.5 -179q178 0 296.5 168t118.5 438q0 301 -143 482t-352 181zM1350 674q0 -262 -123 -436q-86 -123 -218.5 -190.5t-299.5 -67.5q-268 0 -451.5 180t-183.5 475q0 276 136 463q86 118 211.5 184t274.5 66
q283 0 468.5 -182.5t185.5 -491.5z" />
    <glyph glyph-name="Odieresis" unicode="&#xd6;" horiz-adv-x="1423" 
d="M199 1446q0 41 29.5 69.5t68.5 28.5t68.5 -28.5t29.5 -69.5t-29.5 -69.5t-68.5 -28.5t-68.5 28.5t-29.5 69.5zM1036 1446q0 41 29 69.5t70 28.5t69.5 -28.5t28.5 -69.5t-28.5 -69.5t-69.5 -28.5t-70 28.5t-29 69.5zM670 1298q-158 0 -285 -164.5t-127 -463.5
q0 -283 147.5 -462t344.5 -179q178 0 296.5 168t118.5 438q0 301 -143 482t-352 181zM1350 674q0 -262 -123 -436q-86 -123 -218.5 -190.5t-299.5 -67.5q-268 0 -451.5 180t-183.5 475q0 276 136 463q86 118 211.5 184t274.5 66q283 0 468.5 -182.5t185.5 -491.5z" />
    <glyph glyph-name="multiply" unicode="&#xd7;" horiz-adv-x="1079" 
d="M606 473l252 -254l-67 -69l-250 253l-250 -249l-74 67l252 250l-252 252l70 70l250 -252l254 254l71 -68z" />
    <glyph glyph-name="Oslash" unicode="&#xd8;" horiz-adv-x="1423" 
d="M193 -31q-27 0 -35 9.5t-15 35.5l116 143q-186 184 -185 478q0 276 136 463q86 118 211.5 184t274.5 66q245 0 419 -138l120 148q29 0 37 -8.5t12 -32.5l-121 -150q187 -185 187 -493q0 -262 -123 -436q-86 -123 -218.5 -190.5t-299.5 -67.5q-230 0 -400 133zM670 1298
q-158 0 -285 -164.5t-127 -463.5q0 -224 99 -392l674 828q-68 93 -161.5 142.5t-199.5 49.5zM1067 1049l-671 -829q69 -92 161.5 -141.5t192.5 -49.5q178 0 296.5 168t118.5 438q0 241 -98 414z" />
    <glyph glyph-name="Ugrave" unicode="&#xd9;" horiz-adv-x="1368" 
d="M605 1675l248 -172q31 -22 31 -43q0 -12 -9.5 -21t-21.5 -9q-31 0 -88 24l-315 129q62 60 155 92zM367 551q0 -287 112 -395q117 -113 242 -113q100 0 173 34t114 84t64.5 123.5t30.5 138t7 144.5v531q0 66 -6 99.5t-33 52t-53.5 23.5t-95.5 11q-8 10 -8.5 24.5t8.5 22.5
q49 0 114.5 -5t110.5 -5q39 0 95 5t106 5q8 -8 8 -22.5t-8 -24.5q-57 -6 -79 -11t-45.5 -23.5t-29.5 -53.5t-6 -98v-494q0 -147 -21.5 -252.5t-75 -194.5t-155.5 -133t-256 -44q-80 0 -153.5 21.5t-150.5 72.5t-124 156.5t-47 252.5v174q0 270 -4 441q-2 123 -35 152.5
t-146 33.5q-8 10 -8 24.5t8 22.5q43 0 126 -5t140.5 -5t140.5 5t126 5q8 -8 8 -22.5t-8 -24.5q-115 -4 -147.5 -33.5t-34.5 -152.5q-4 -125 -4 -314v-233z" />
    <glyph glyph-name="Uacute" unicode="&#xda;" horiz-adv-x="1368" 
d="M890 1677q88 -41 127 -106l-295 -119q-57 -25 -86 -25q-13 0 -22 9.5t-9 21.5q0 22 31 43zM367 551q0 -287 112 -395q117 -113 242 -113q100 0 173 34t114 84t64.5 123.5t30.5 138t7 144.5v531q0 66 -6 99.5t-33 52t-53.5 23.5t-95.5 11q-8 10 -8.5 24.5t8.5 22.5
q49 0 114.5 -5t110.5 -5q39 0 95 5t106 5q8 -8 8 -22.5t-8 -24.5q-57 -6 -79 -11t-45.5 -23.5t-29.5 -53.5t-6 -98v-494q0 -147 -21.5 -252.5t-75 -194.5t-155.5 -133t-256 -44q-80 0 -153.5 21.5t-150.5 72.5t-124 156.5t-47 252.5v174q0 270 -4 441q-2 123 -35 152.5
t-146 33.5q-8 10 -8 24.5t8 22.5q43 0 126 -5t140.5 -5t140.5 5t126 5q8 -8 8 -22.5t-8 -24.5q-115 -4 -147.5 -33.5t-34.5 -152.5q-4 -125 -4 -314v-233z" />
    <glyph glyph-name="Ucircumflex" unicode="&#xdb;" horiz-adv-x="1368" 
d="M773 1655q90 -108 211 -199q-10 -34 -33 -43q-134 62 -217 125q-95 -70 -219 -125q-22 15 -29 43q83 63 207 199q36 22 80 0zM367 551q0 -287 112 -395q117 -113 242 -113q100 0 173 34t114 84t64.5 123.5t30.5 138t7 144.5v531q0 66 -6 99.5t-33 52t-53.5 23.5t-95.5 11
q-8 10 -8.5 24.5t8.5 22.5q49 0 114.5 -5t110.5 -5q39 0 95 5t106 5q8 -8 8 -22.5t-8 -24.5q-57 -6 -79 -11t-45.5 -23.5t-29.5 -53.5t-6 -98v-494q0 -147 -21.5 -252.5t-75 -194.5t-155.5 -133t-256 -44q-80 0 -153.5 21.5t-150.5 72.5t-124 156.5t-47 252.5v174
q0 270 -4 441q-2 123 -35 152.5t-146 33.5q-8 10 -8 24.5t8 22.5q43 0 126 -5t140.5 -5t140.5 5t126 5q8 -8 8 -22.5t-8 -24.5q-115 -4 -147.5 -33.5t-34.5 -152.5q-4 -125 -4 -314v-233z" />
    <glyph glyph-name="Udieresis" unicode="&#xdc;" horiz-adv-x="1368" 
d="M487 1448q0 39 29 67.5t68 28.5t67.5 -28.5t28.5 -67.5t-28.5 -67.5t-67.5 -28.5t-68 28.5t-29 67.5zM782 1448q0 39 29 67.5t68 28.5t67.5 -28.5t28.5 -67.5t-28.5 -67.5t-67.5 -28.5t-68 28.5t-29 67.5zM370 551q0 -131 20.5 -231t87.5 -164q117 -113 244 -113
q100 0 173 33.5t113 83.5t64 124.5t30.5 139t6.5 143.5v531q0 61 -5 98t-20 54.5t-25 22t-36 11.5q-9 9 -9 23.5t9 23.5q97 -10 125 -10q39 0 94 4.5t105 5.5q9 -9 9 -23.5t-9 -23.5q-40 -5 -55.5 -7t-39.5 -9.5t-31.5 -18t-17.5 -31t-12 -49t-2 -71.5v-494
q0 -117 -12.5 -206t-46.5 -170.5t-90 -134t-147 -83t-214 -30.5q-62 0 -121 11.5t-125.5 45.5t-115.5 88t-81 146.5t-32 211.5q0 31 1 79.5t1 94.5q0 185 -6 441q-2 66 -7.5 100.5t-25 54t-42.5 24t-73 7.5q-9 9 -9 23.5t9 23.5q27 -1 104.5 -5.5t129.5 -4.5q38 0 99 5t65 5
q9 -9 9 -23.5t-9 -23.5q-25 -3 -38.5 -12.5t-24.5 -51t-13 -122.5q-5 -172 -6 -314q0 -31 1 -109.5t1 -123.5z" />
    <glyph glyph-name="Yacute" unicode="&#xdd;" horiz-adv-x="1249" 
d="M809 1679q88 -41 127 -106l-295 -119q-57 -25 -86 -24q-13 0 -21.5 9t-8.5 21q0 22 30 43zM735 223q2 -121 37 -151.5t162 -34.5q8 -8 8 -22.5t-8 -24.5q-41 0 -132 5t-152.5 5t-155 -5t-132.5 -5q-23 23 0 47q127 4 162 34.5t37 151.5l6 307q0 23 -1 37.5t-6 27.5
t-8.5 19.5t-14.5 23.5t-19 30l-269 452q-57 97 -107.5 128t-125.5 36q-25 25 -2 47q14 0 98.5 -5t131.5 -5q45 0 127 5t114 5q23 -25 0 -47q-90 -4 -108.5 -21.5t14.5 -82.5l259 -455q27 -49 51 -4l243 459q16 31 17.5 51t-15 30.5t-38 15.5t-60.5 7q-23 23 0 45
q41 0 106.5 -4t89.5 -4q27 0 97.5 4t93.5 4q23 -23 0 -45q-81 -8 -130 -32t-89 -95l-261 -473q-26 -47 -26 -136z" />
    <glyph glyph-name="Thorn" unicode="&#xde;" horiz-adv-x="1079" 
d="M369 981v-596q31 -10 151 -10q131 0 218 73.5t87 253.5q0 166 -78.5 234t-189 68t-188.5 -23zM369 229q0 -123 32.5 -155.5t145.5 -36.5q23 -25 0 -47q-45 0 -124 5t-134.5 5t-136 -5t-123.5 -5q-8 10 -8.5 24.5t8.5 22.5q113 4 145.5 36.5t32.5 155.5v842q0 127 -35 168
t-143 45q-8 10 -8.5 24.5t8.5 22.5q45 0 123.5 -5t134 -5t136.5 5t124 5q23 -25 0 -47q-109 -4 -143.5 -45t-34.5 -168v-8q147 8 190 8q133 0 227.5 -36t138.5 -95t61.5 -116.5t17.5 -121t-24 -128t-75 -127t-148.5 -101.5t-226.5 -39q-106 0 -161 19v-97z" />
    <glyph glyph-name="germandbls" unicode="&#xdf;" horiz-adv-x="1107" 
d="M199 229q4 123 4 527q0 29 -111 35q-10 8 0 27.5t29 19.5q53 0 67.5 21.5t14.5 117.5q0 121 40 213t102.5 141t129 74t131.5 25q147 0 226 -71t79 -157q0 -74 -41 -142.5t-86 -108.5t-137 -109v-4q66 -43 102.5 -70t95 -77t91.5 -95t57.5 -109.5t24.5 -132.5
q0 -164 -87 -269t-226 -105q-117 0 -165 57t-48 139q0 25 19 48.5t44 23.5q57 0 57 -62q0 -18 -8 -42.5t-8 -34.5q0 -78 109 -78q53 0 102 79.5t49 208.5q0 252 -315 492v27q113 88 163 160.5t50 177.5q0 88 -44 145t-122 57q-51 0 -91 -18.5t-65.5 -55t-44 -78.5
t-28 -100.5t-13.5 -107.5t-6 -113q-4 -92 -4 -337.5t4 -338.5q4 -121 24.5 -152.5t79.5 -39.5q23 -25 0 -47q-43 0 -91 5t-83 5q-45 0 -109.5 -5t-103.5 -5q-8 10 -8 24.5t8 22.5q90 4 114 35.5t28 156.5z" />
    <glyph glyph-name="agrave" unicode="&#xe0;" horiz-adv-x="929" 
d="M401 1343l144 -258q12 -25 12 -49q0 -8 -9 -15t-22 -7q-16 0 -59 41l-234 223l5 22q63 47 133 48q14 -1 30 -5zM600 434l-168 -41q-100 -25 -148 -82t-48 -123q0 -53 41.5 -100t109.5 -47q12 0 28.5 5t29 11t33 20.5t29.5 21.5t30.5 24.5t25.5 21.5q25 18 27 50zM590 94
h-4l-39 -31q-66 -51 -109 -67t-108 -16q-244 0 -244 200q0 98 88 170t234 105l184 41q10 4 10 43q0 150 -46 212t-107.5 62t-109.5 -24.5t-48 -67.5q0 -27 4 -39q6 -12 6 -34.5t-25.5 -49.5t-64.5 -27q-35 0 -56.5 22.5t-21.5 57.5q0 78 105.5 142.5t226.5 64.5
q291 0 278 -332l-10 -290q-4 -92 12.5 -133.5t69.5 -41.5q25 0 41 16.5t18 16.5q8 0 18.5 -8t10.5 -18q0 -6 -20.5 -27t-61.5 -41t-84 -20q-112 -1 -147 114z" />
    <glyph glyph-name="aacute" unicode="&#xe1;" horiz-adv-x="929" 
d="M500 1343q12 4 28 5q63 0 113 -48l6 -22l-235 -223q-39 -39 -62 -39q-10 0 -19 8t-9 18q0 20 23 58zM600 434l-168 -41q-100 -25 -148 -82t-48 -123q0 -53 41.5 -100t109.5 -47q12 0 28.5 5t29 11t33 20.5t29.5 21.5t30.5 24.5t25.5 21.5q25 18 27 50zM590 94h-4l-39 -31
q-66 -51 -109 -67t-108 -16q-244 0 -244 200q0 98 88 170t234 105l184 41q10 4 10 43q0 150 -46 212t-107.5 62t-109.5 -24.5t-48 -67.5q0 -27 4 -39q6 -12 6 -34.5t-25.5 -49.5t-64.5 -27q-35 0 -56.5 22.5t-21.5 57.5q0 78 105.5 142.5t226.5 64.5q291 0 278 -332
l-10 -290q-4 -92 12.5 -133.5t69.5 -41.5q25 0 41 16.5t18 16.5q8 0 18.5 -8t10.5 -18q0 -6 -20.5 -27t-61.5 -41t-84 -20q-112 -1 -147 114z" />
    <glyph glyph-name="acircumflex" unicode="&#xe2;" horiz-adv-x="929" 
d="M473 1343q76 -123 223 -286q-20 -29 -47 -35q-119 76 -211 170q-115 -115 -213 -170q-27 6 -45 35q156 172 228 286q34 8 65 0zM600 434l-168 -41q-100 -25 -148 -82t-48 -123q0 -53 41.5 -100t109.5 -47q12 0 28.5 5t29 11t33 20.5t29.5 21.5t30.5 24.5t25.5 21.5
q25 18 27 50zM590 94h-4l-39 -31q-66 -51 -109 -67t-108 -16q-244 0 -244 200q0 98 88 170t234 105l184 41q10 4 10 43q0 150 -46 212t-107.5 62t-109.5 -24.5t-48 -67.5q0 -27 4 -39q6 -12 6 -34.5t-25.5 -49.5t-64.5 -27q-35 0 -56.5 22.5t-21.5 57.5q0 78 105.5 142.5
t226.5 64.5q291 0 278 -332l-10 -290q-4 -92 12.5 -133.5t69.5 -41.5q25 0 41 16.5t18 16.5q8 0 18.5 -8t10.5 -18q0 -6 -20.5 -27t-61.5 -41t-84 -20q-112 -1 -147 114z" />
    <glyph glyph-name="atilde" unicode="&#xe3;" horiz-adv-x="929" 
d="M580 1219q35 0 55 21.5t41 84.5q33 2 55 -12q-41 -203 -178 -203q-12 0 -25.5 3t-29 11.5t-24.5 14.5t-26.5 19t-25.5 18q-63 39 -111 38q-39 0 -58.5 -22.5t-35.5 -75.5q-39 -6 -55 10q47 201 164 201q18 0 33.5 -4t34 -13.5t26.5 -14.5t28.5 -20t24.5 -18
q52 -38 107 -38zM600 434l-168 -41q-100 -25 -148 -82t-48 -123q0 -53 41.5 -100t109.5 -47q12 0 28.5 5t29 11t33 20.5t29.5 21.5t30.5 24.5t25.5 21.5q25 18 27 50zM590 94h-4l-39 -31q-66 -51 -109 -67t-108 -16q-244 0 -244 200q0 98 88 170t234 105l184 41q10 4 10 43
q0 150 -46 212t-107.5 62t-109.5 -24.5t-48 -67.5q0 -27 4 -39q6 -12 6 -34.5t-25.5 -49.5t-64.5 -27q-35 0 -56.5 22.5t-21.5 57.5q0 78 105.5 142.5t226.5 64.5q291 0 278 -332l-10 -290q-4 -92 12.5 -133.5t69.5 -41.5q25 0 41 16.5t18 16.5q8 0 18.5 -8t10.5 -18
q0 -6 -20.5 -27t-61.5 -41t-84 -20q-112 -1 -147 114z" />
    <glyph glyph-name="adieresis" unicode="&#xe4;" horiz-adv-x="929" 
d="M170 1178q0 41 28.5 69.5t67.5 28.5t67.5 -28.5t28.5 -69.5q0 -39 -27.5 -68t-68.5 -29t-68.5 29t-27.5 68zM516 1178q0 41 28.5 69.5t67.5 28.5t68 -28.5t29 -69.5q0 -39 -29 -68t-68 -29t-67.5 29t-28.5 68zM600 434l-168 -41q-100 -25 -148 -82t-48 -123
q0 -53 41.5 -100t109.5 -47q12 0 28.5 5t29 11t33 20.5t29.5 21.5t30.5 24.5t25.5 21.5q25 18 27 50zM590 94h-4l-39 -31q-66 -51 -109 -67t-108 -16q-244 0 -244 200q0 98 88 170t234 105l184 41q10 4 10 43q0 150 -46 212t-107.5 62t-109.5 -24.5t-48 -67.5q0 -27 4 -39
q6 -12 6 -34.5t-25.5 -49.5t-64.5 -27q-35 0 -56.5 22.5t-21.5 57.5q0 78 105.5 142.5t226.5 64.5q291 0 278 -332l-10 -290q-4 -92 12.5 -133.5t69.5 -41.5q25 0 41 16.5t18 16.5q8 0 18.5 -8t10.5 -18q0 -6 -20.5 -27t-61.5 -41t-84 -20q-112 -1 -147 114z" />
    <glyph glyph-name="aring" unicode="&#xe5;" horiz-adv-x="929" 
d="M430 1300q-47 0 -72.5 -30.5t-25.5 -77.5q0 -45 26.5 -77t71.5 -32t71.5 32t26.5 77q0 49 -26.5 78.5t-71.5 29.5zM250 1192q0 70 54 122t126 52t126 -51t54 -123q0 -70 -53 -122t-127 -52q-72 0 -126 52t-54 122zM600 434l-168 -41q-100 -25 -148 -82t-48 -123
q0 -53 41.5 -100t109.5 -47q12 0 28.5 5t29 11t33 20.5t29.5 21.5t30.5 24.5t25.5 21.5q25 18 27 50zM590 94h-4l-39 -31q-66 -51 -109 -67t-108 -16q-244 0 -244 200q0 98 88 170t234 105l184 41q10 4 10 43q0 150 -46 212t-107.5 62t-109.5 -24.5t-48 -67.5q0 -27 4 -39
q6 -12 6 -34.5t-25.5 -49.5t-64.5 -27q-35 0 -56.5 22.5t-21.5 57.5q0 78 105.5 142.5t226.5 64.5q291 0 278 -332l-10 -290q-4 -92 12.5 -133.5t69.5 -41.5q25 0 41 16.5t18 16.5q8 0 18.5 -8t10.5 -18q0 -6 -20.5 -27t-61.5 -41t-84 -20q-112 -1 -147 114z" />
    <glyph glyph-name="ae" unicode="&#xe6;" horiz-adv-x="1406" 
d="M516 768q-41 43 -127 43q-59 0 -104 -29.5t-45 -70.5q0 -31 6 -39q6 -12 6 -35q0 -25 -20.5 -45.5t-55.5 -20.5q-41 0 -59.5 27t-18.5 61q0 82 94.5 140.5t217.5 58.5q195 0 268 -135q98 135 276 135q147 0 227.5 -65.5t80.5 -128.5q0 -84 -41 -131.5t-160 -75
t-340 -29.5q0 -157 64 -245q39 -53 93 -90.5t105 -37.5q115 0 231 138q23 -2 39 -31q-45 -80 -124.5 -131t-174.5 -51q-80 0 -146.5 28.5t-90 50t-55.5 60.5q-14 12 -21.5 9t-26.5 -24q-123 -125 -260 -124q-119 0 -182 36q-96 55 -96 183q0 57 34.5 115.5t88.5 88.5
q117 70 381 89q-3 213 -64 276zM580 422q-195 -14 -291 -88q-74 -55 -74 -125q0 -168 141 -168q70 0 129.5 57.5t83.5 124.5q11 47 11 199zM723 496q223 2 306 36.5t83 124.5q0 51 -47 102.5t-113 51.5q-94 0 -155.5 -91t-73.5 -224z" />
    <glyph glyph-name="ccedilla" unicode="&#xe7;" horiz-adv-x="858" 
d="M467 -197q-53 0 -92 -12l-13 12l74 178q-168 11 -266 126.5t-98 298.5q0 197 128 324.5t283 127.5q139 0 225.5 -52t86.5 -134q0 -43 -29 -64.5t-66 -21.5q-66 0 -73 69q-18 156 -154 156q-100 0 -173 -102.5t-73 -259.5q0 -178 83 -286t202 -108q63 0 134 40t120 104
q23 -2 31 -21q-113 -183 -290 -197l-44 -118q25 6 53 6q63 0 104.5 -35t41.5 -92q0 -66 -62.5 -109t-157.5 -43q-72 0 -151 35q0 33 20 53q78 -29 119 -28q47 0 76 21.5t29 60.5q0 71 -68 71z" />
    <glyph glyph-name="egrave" unicode="&#xe8;" horiz-adv-x="890" 
d="M430 1343l143 -258q12 -25 13 -49q0 -8 -9.5 -15t-21.5 -7q-16 0 -59 41l-234 223l4 22q63 47 133 48q15 -1 31 -5zM233 530l396 11q29 0 28 26q0 117 -54 180.5t-130 63.5q-72 0 -143.5 -67t-96.5 -214zM774 182q33 -2 41 -32q-129 -170 -342 -170q-205 0 -309 124
q-92 106 -92 291q0 209 125 336t276 127q186 0 263 -99.5t77 -244.5q0 -35 -37 -35l-549 -8q0 -174 62 -274q43 -70 108.5 -106t124.5 -36q78 0 134.5 32t117.5 95z" />
    <glyph glyph-name="eacute" unicode="&#xe9;" horiz-adv-x="890" 
d="M512 1343q12 4 29 5q63 0 112 -48l6 -22l-235 -223q-39 -39 -62 -39q-10 0 -19 8t-9 18q0 20 23 58zM233 530l396 11q29 0 28 26q0 117 -54 180.5t-130 63.5q-72 0 -143.5 -67t-96.5 -214zM774 182q33 -2 41 -32q-129 -170 -342 -170q-205 0 -309 124q-92 106 -92 291
q0 209 125 336t276 127q186 0 263 -99.5t77 -244.5q0 -35 -37 -35l-549 -8q0 -174 62 -274q43 -70 108.5 -106t124.5 -36q78 0 134.5 32t117.5 95z" />
    <glyph glyph-name="ecircumflex" unicode="&#xea;" horiz-adv-x="890" 
d="M489 1343q76 -123 224 -286q-20 -29 -47 -35q-119 76 -211 170q-115 -115 -213 -170q-27 6 -45 35q156 172 227 286q34 8 65 0zM233 530l396 11q29 0 28 26q0 117 -54 180.5t-130 63.5q-72 0 -143.5 -67t-96.5 -214zM774 182q33 -2 41 -32q-129 -170 -342 -170
q-205 0 -309 124q-92 106 -92 291q0 209 125 336t276 127q186 0 263 -99.5t77 -244.5q0 -35 -37 -35l-549 -8q0 -174 62 -274q43 -70 108.5 -106t124.5 -36q78 0 134.5 32t117.5 95z" />
    <glyph glyph-name="edieresis" unicode="&#xeb;" horiz-adv-x="890" 
d="M203 1178q0 41 28.5 69.5t67.5 28.5t67.5 -28.5t28.5 -69.5q0 -39 -27.5 -68t-68.5 -29t-68.5 29t-27.5 68zM549 1178q0 41 28.5 69.5t67.5 28.5t67.5 -28.5t28.5 -69.5q0 -39 -28.5 -68t-67.5 -29t-67.5 29t-28.5 68zM233 530l396 11q29 0 28 26q0 117 -54 180.5
t-130 63.5q-72 0 -143.5 -67t-96.5 -214zM774 182q33 -2 41 -32q-129 -170 -342 -170q-205 0 -309 124q-92 106 -92 291q0 209 125 336t276 127q186 0 263 -99.5t77 -244.5q0 -35 -37 -35l-549 -8q0 -174 62 -274q43 -70 108.5 -106t124.5 -36q78 0 134.5 32t117.5 95z" />
    <glyph glyph-name="igrave" unicode="&#xec;" horiz-adv-x="546" 
d="M203 1343l143 -258q12 -25 12 -49q0 -8 -9 -15t-21 -7q-16 0 -60 41l-233 223l4 22q63 47 133 48q15 -1 31 -5zM360 223q4 -125 28 -152.5t120 -33.5q8 -8 8 -22.5t-8 -24.5q-154 10 -221 10q-90 0 -224 -10q-23 23 0 47q96 8 120 35.5t28 150.5q4 137 4 229q0 95 -4 177
q-4 88 -25.5 109.5t-107.5 29.5q-8 25 -4 37q178 23 272 59q27 0 27 -14q-7 -111 -13 -212q-4 -83 -4 -188q0 -114 4 -227z" />
    <glyph glyph-name="iacute" unicode="&#xed;" horiz-adv-x="546" 
d="M334 1343q12 4 28 5q63 0 113 -48l6 -22l-235 -223q-39 -39 -62 -39q-10 0 -19 8t-9 18q0 20 23 58zM360 223q4 -125 28 -152.5t120 -33.5q8 -8 8 -22.5t-8 -24.5q-154 10 -221 10q-90 0 -224 -10q-23 23 0 47q96 8 120 35.5t28 150.5q4 137 4 229q0 95 -4 177
q-4 88 -25.5 109.5t-107.5 29.5q-8 25 -4 37q178 23 272 59q27 0 27 -14q-7 -111 -13 -212q-4 -83 -4 -188q0 -114 4 -227z" />
    <glyph glyph-name="icircumflex" unicode="&#xee;" horiz-adv-x="546" 
d="M289 1343q76 -123 223 -286q-20 -29 -47 -35q-119 76 -211 170q-115 -115 -213 -170q-27 6 -45 35q156 172 227 286q35 8 66 0zM360 223q4 -125 28 -152.5t120 -33.5q8 -8 8 -22.5t-8 -24.5q-154 10 -221 10q-90 0 -224 -10q-23 23 0 47q96 8 120 35.5t28 150.5
q4 137 4 229q0 95 -4 177q-4 88 -25.5 109.5t-107.5 29.5q-8 25 -4 37q178 23 272 59q27 0 27 -14q-7 -111 -13 -212q-4 -83 -4 -188q0 -114 4 -227z" />
    <glyph glyph-name="idieresis" unicode="&#xef;" horiz-adv-x="546" 
d="M-8 1178q0 41 28.5 69.5t67.5 28.5t67.5 -28.5t28.5 -69.5q0 -39 -28.5 -68t-67.5 -29t-67.5 29t-28.5 68zM338 1178q0 41 28.5 69.5t67.5 28.5t67.5 -28.5t28.5 -69.5q0 -39 -27.5 -68t-68.5 -29t-68.5 29t-27.5 68zM360 223q4 -125 28 -152.5t120 -33.5q8 -8 8 -22.5
t-8 -24.5q-154 10 -221 10q-90 0 -224 -10q-23 23 0 47q96 8 120 35.5t28 150.5q4 137 4 229q0 95 -4 177q-4 88 -25.5 109.5t-107.5 29.5q-8 25 -4 37q178 23 272 59q27 0 27 -14q-7 -111 -13 -212q-4 -83 -4 -188q0 -114 4 -227z" />
    <glyph glyph-name="eth" unicode="&#xf0;" horiz-adv-x="995" 
d="M483 27q86 0 159 98t73 311q0 129 -35 258q-92 117 -199 117q-92 0 -152.5 -64.5t-81 -143.5t-20.5 -163q0 -168 76 -290.5t180 -122.5zM72 406q0 231 125 341.5t286 110.5q82 0 152 -29q-92 225 -176 330l-13 15l-210 -142l-33 47l205 140l-31 30q-94 94 -160 140l31 41
q119 -61 233 -162l209 137l33 -47l-193 -129l48 -47q131 -131 209.5 -321.5t78.5 -397.5q0 -236 -119.5 -359.5t-295.5 -123.5q-172 0 -275.5 131t-103.5 295z" />
    <glyph glyph-name="ntilde" unicode="&#xf1;" horiz-adv-x="1075" 
d="M688 1219q35 0 55.5 21.5t40.5 84.5q33 2 56 -12q-41 -203 -178 -203q-12 0 -25.5 3t-29 11.5t-25 14.5t-26.5 19t-26 18q-63 39 -110 38q-39 0 -58.5 -22.5t-35.5 -75.5q-39 -6 -56 10q47 201 164 201q18 0 33.5 -4t34 -13.5t27 -14.5t29 -20t24.5 -18q51 -38 106 -38z
M358 698q143 160 342 160q115 0 166 -67q39 -54 40 -174q0 -27 -3 -89q-6 -158 0 -315q4 -117 25.5 -142.5t105.5 -33.5q20 -23 0 -47q-39 0 -98 5t-102 5q-41 0 -100.5 -5t-96.5 -5q-20 25 0 47q78 8 97.5 33.5t23.5 142.5q6 172 0 342q-4 123 -21 152q-35 70 -104 69
q-59 0 -132 -31.5t-126 -82.5q-31 -35 -33 -82q-6 -123 0 -367q2 -117 20.5 -142.5t96.5 -33.5q8 -8 8 -22.5t-8 -24.5q-37 0 -91.5 5t-95.5 5q-47 0 -112.5 -5t-98.5 -5q-8 10 -8 24.5t8 22.5q90 8 113 33.5t25 142.5q6 248 0 426q-2 84 -24.5 104.5t-102.5 28.5
q-8 23 -4 35q172 23 258 55q25 0 24 -14q-10 -90 -10 -150q0 -25 18 0z" />
    <glyph glyph-name="ograve" unicode="&#xf2;" horiz-adv-x="987" 
d="M459 1343l143 -258q12 -25 12 -49q0 -8 -9 -15t-21 -7q-16 0 -60 41l-233 223l4 22q63 47 133 48q15 -1 31 -5zM82 399q0 195 108 322q117 137 306 137q141 0 237 -69.5t134 -165t38 -205.5q0 -203 -127 -328q-115 -111 -286 -110q-195 0 -302.5 126.5t-107.5 292.5z
M467 811q-121 0 -175 -108.5t-54 -258.5q0 -84 26.5 -175t94 -166.5t161.5 -75.5q84 0 157 81.5t73 247.5q0 209 -78 332t-205 123z" />
    <glyph glyph-name="oacute" unicode="&#xf3;" horiz-adv-x="987" 
d="M553 1343q12 4 29 5q63 0 112 -48l6 -22l-235 -223q-39 -39 -62 -39q-10 0 -19 8t-9 18q0 20 23 58zM82 399q0 195 108 322q117 137 306 137q141 0 237 -69.5t134 -165t38 -205.5q0 -203 -127 -328q-115 -111 -286 -110q-195 0 -302.5 126.5t-107.5 292.5zM467 811
q-121 0 -175 -108.5t-54 -258.5q0 -84 26.5 -175t94 -166.5t161.5 -75.5q84 0 157 81.5t73 247.5q0 209 -78 332t-205 123z" />
    <glyph glyph-name="ocircumflex" unicode="&#xf4;" horiz-adv-x="987" 
d="M528 1343q76 -123 224 -286q-20 -29 -47 -35q-119 76 -211 170q-115 -115 -213 -170q-27 6 -45 35q156 172 227 286q34 8 65 0zM82 399q0 195 108 322q117 137 306 137q141 0 237 -69.5t134 -165t38 -205.5q0 -203 -127 -328q-115 -111 -286 -110q-195 0 -302.5 126.5
t-107.5 292.5zM467 811q-121 0 -175 -108.5t-54 -258.5q0 -84 26.5 -175t94 -166.5t161.5 -75.5q84 0 157 81.5t73 247.5q0 209 -78 332t-205 123z" />
    <glyph glyph-name="otilde" unicode="&#xf5;" horiz-adv-x="987" 
d="M623 1219q35 0 55 21.5t41 84.5q33 2 55 -12q-41 -203 -178 -203q-12 0 -25.5 3t-29 11.5t-24.5 14.5t-26.5 19t-25.5 18q-63 39 -111 38q-39 0 -58.5 -22.5t-35.5 -75.5q-39 -6 -55 10q47 201 164 201q18 0 33.5 -4t34 -13.5t26.5 -14.5t28.5 -20t24.5 -18
q52 -38 107 -38zM82 399q0 195 108 322q117 137 306 137q141 0 237 -69.5t134 -165t38 -205.5q0 -203 -127 -328q-115 -111 -286 -110q-195 0 -302.5 126.5t-107.5 292.5zM467 811q-121 0 -175 -108.5t-54 -258.5q0 -84 26.5 -175t94 -166.5t161.5 -75.5q84 0 157 81.5
t73 247.5q0 209 -78 332t-205 123z" />
    <glyph glyph-name="odieresis" unicode="&#xf6;" horiz-adv-x="987" 
d="M225 1178q0 41 29 69.5t67.5 28.5t67.5 -28.5t29 -69.5q0 -39 -29 -68t-67.5 -29t-67.5 29t-29 68zM571 1178q0 41 29 69.5t68 28.5t67.5 -28.5t28.5 -69.5q0 -39 -27.5 -68t-68.5 -29t-69 29t-28 68zM82 399q0 195 108 322q117 137 306 137q141 0 237 -69.5t134 -165
t38 -205.5q0 -203 -127 -328q-115 -111 -286 -110q-195 0 -302.5 126.5t-107.5 292.5zM467 811q-121 0 -175 -108.5t-54 -258.5q0 -84 26.5 -175t94 -166.5t161.5 -75.5q84 0 157 81.5t73 247.5q0 209 -78 332t-205 123z" />
    <glyph glyph-name="divide" unicode="&#xf7;" horiz-adv-x="1079" 
d="M457 757q0 30 29 56t61 26q33 0 57.5 -28.5t24.5 -60.5q0 -29 -27.5 -56t-61.5 -27q-31 0 -57 28.5t-26 61.5zM457 208q0 30 29 56t61 26q33 0 57.5 -28.5t24.5 -60.5q0 -29 -27.5 -56t-61.5 -27q-31 0 -57 28.5t-26 61.5zM944 520v-90h-809v90h809z" />
    <glyph glyph-name="oslash" unicode="&#xf8;" horiz-adv-x="987" 
d="M819 887q37 0 51 -41l-83 -102q118 -124 118 -326q0 -203 -127 -328q-115 -111 -286 -110q-153 0 -260 87l-97 -118q-45 0 -51 47l99 120q-101 119 -101 283q0 195 108 322q117 137 306 137q142 0 241 -71zM467 811q-121 0 -175 -108.5t-54 -258.5q0 -106 41 -212
l385 467q-76 112 -197 112zM699 637l-387 -473q80 -137 208 -137q84 0 157 81.5t73 247.5t-51 281z" />
    <glyph glyph-name="ugrave" unicode="&#xf9;" horiz-adv-x="1038" 
d="M449 1343l143 -258q12 -25 12 -49q0 -8 -9 -15t-22 -7q-16 0 -59 41l-233 223l4 22q63 47 133 48q15 -1 31 -5zM403 -20q-242 0 -231 266q8 201 0 401q-4 94 -26.5 121t-94.5 33q-23 23 0 47q143 -4 187 -4q47 0 67 4q16 0 17 -12q-6 -121 -9 -181q-8 -190 0 -383
q6 -135 33 -178t115 -43q37 0 100.5 34t116.5 81q4 4 12 11t10 8t4.5 7.5t3.5 11.5t1 17q8 211 0 422q-4 96 -27 125t-94 33q-23 23 0 47q143 -4 186 -4q49 0 70 4q14 0 14 -12q-6 -121 -8 -181q-8 -211 0 -422q4 -78 29.5 -106.5t113.5 -36.5q14 -16 0 -31
q-139 -16 -217 -79q-23 -6 -37 0q-23 72 -22 116q-2 10 -11.5 9t-17.5 -7q-148 -118 -285 -118z" />
    <glyph glyph-name="uacute" unicode="&#xfa;" horiz-adv-x="1038" 
d="M608 1343q12 4 29 5q63 0 113 -48l6 -22l-236 -223q-39 -39 -61 -39q-10 0 -19.5 8t-9.5 18q0 20 23 58zM403 -20q-242 0 -231 266q8 201 0 401q-4 94 -26.5 121t-94.5 33q-23 23 0 47q143 -4 187 -4q47 0 67 4q16 0 17 -12q-6 -121 -9 -181q-8 -190 0 -383
q6 -135 33 -178t115 -43q37 0 100.5 34t116.5 81q4 4 12 11t10 8t4.5 7.5t3.5 11.5t1 17q8 211 0 422q-4 96 -27 125t-94 33q-23 23 0 47q143 -4 186 -4q49 0 70 4q14 0 14 -12q-6 -121 -8 -181q-8 -211 0 -422q4 -78 29.5 -106.5t113.5 -36.5q14 -16 0 -31
q-139 -16 -217 -79q-23 -6 -37 0q-23 72 -22 116q-2 10 -11.5 9t-17.5 -7q-148 -118 -285 -118z" />
    <glyph glyph-name="ucircumflex" unicode="&#xfb;" horiz-adv-x="1038" 
d="M539 1343q76 -123 223 -286q-20 -29 -47 -35q-119 76 -211 170q-115 -115 -213 -170q-27 6 -45 35q156 172 227 286q35 8 66 0zM403 -20q-242 0 -231 266q8 201 0 401q-4 94 -26.5 121t-94.5 33q-23 23 0 47q143 -4 187 -4q47 0 67 4q16 0 17 -12q-6 -121 -9 -181
q-8 -190 0 -383q6 -135 33 -178t115 -43q37 0 100.5 34t116.5 81q4 4 12 11t10 8t4.5 7.5t3.5 11.5t1 17q8 211 0 422q-4 96 -27 125t-94 33q-23 23 0 47q143 -4 186 -4q49 0 70 4q14 0 14 -12q-6 -121 -8 -181q-8 -211 0 -422q4 -78 29.5 -106.5t113.5 -36.5q14 -16 0 -31
q-139 -16 -217 -79q-23 -6 -37 0q-23 72 -22 116q-2 10 -11.5 9t-17.5 -7q-148 -118 -285 -118z" />
    <glyph glyph-name="udieresis" unicode="&#xfc;" horiz-adv-x="1038" 
d="M233 1178q0 41 29 69.5t68 28.5t67.5 -28.5t28.5 -69.5q0 -39 -28.5 -68t-67.5 -29t-68 29t-29 68zM580 1178q0 41 28.5 69.5t67.5 28.5t67.5 -28.5t28.5 -69.5q0 -39 -27.5 -68t-68.5 -29t-68.5 29t-27.5 68zM403 -20q-242 0 -231 266q8 201 0 401q-4 94 -26.5 121
t-94.5 33q-23 23 0 47q143 -4 187 -4q47 0 67 4q16 0 17 -12q-6 -121 -9 -181q-8 -190 0 -383q6 -135 33 -178t115 -43q37 0 100.5 34t116.5 81q4 4 12 11t10 8t4.5 7.5t3.5 11.5t1 17q8 211 0 422q-4 96 -27 125t-94 33q-23 23 0 47q143 -4 186 -4q49 0 70 4q14 0 14 -12
q-6 -121 -8 -181q-8 -211 0 -422q4 -78 29.5 -106.5t113.5 -36.5q14 -16 0 -31q-139 -16 -217 -79q-23 -6 -37 0q-23 72 -22 116q-2 10 -11.5 9t-17.5 -7q-148 -118 -285 -118z" />
    <glyph glyph-name="yacute" unicode="&#xfd;" horiz-adv-x="1013" 
d="M645 1343q12 4 29 5q63 0 112 -48l7 -22l-236 -223q-39 -39 -61 -39q-10 0 -19.5 8t-9.5 18q0 20 23 58zM379 -354q-78 -139 -189 -140q-39 0 -65.5 20.5t-26.5 51.5q0 23 20.5 45.5t59.5 22.5q10 0 29.5 -5.5t34.5 -5.5q72 0 112 78q59 129 78 181q33 86 -26 223
l-222 514q-41 98 -71.5 131t-92.5 39q-8 10 -8 24.5t8 22.5q96 -10 158 -10q68 0 221 10q23 -25 0 -47q-57 -4 -76.5 -26.5t-14.5 -49.5t26 -76l174 -405q16 -41 26.5 -51.5t20.5 0t27 49.5l194 448q20 47 -13.5 76t-86.5 35q-8 10 -8 24.5t8 22.5q106 -10 178 -10
q57 0 139 10q23 -25 0 -47q-49 -4 -98 -51.5t-72 -98.5q-123 -260 -362 -837q-39 -90 -82 -168z" />
    <glyph glyph-name="thorn" unicode="&#xfe;" horiz-adv-x="1028" 
d="M313 563v-373q0 -63 35 -94q57 -49 135 -49q141 0 205 104.5t64 254.5q0 215 -101 315q-47 47 -127 47q-63 0 -137 -56.5t-74 -148.5zM170 1159q0 59 -2 89t-20.5 46.5t-28.5 18.5t-55 5q-13 1 -19 1q-23 23 -12 59q180 14 268 52q25 0 25 -19q-8 -78 -9 -205v-440
q0 -33 7.5 -35t27.5 21q102 106 223 106q137 0 234.5 -121t97.5 -278q0 -225 -139 -365q-115 -115 -274 -114q-72 0 -138 26q-16 12 -27.5 11t-11.5 -37v-263q0 -117 27 -144.5t135 -33.5q20 -23 0 -43q-33 0 -109.5 5t-127.5 5q-45 0 -112 -5t-101 -5q-20 20 0 43
q92 4 116.5 33t24.5 145v1442z" />
    <glyph glyph-name="ydieresis" unicode="&#xff;" horiz-adv-x="1013" 
d="M248 1178q0 41 28.5 69.5t67.5 28.5t67.5 -28.5t28.5 -69.5q0 -39 -27.5 -68t-68.5 -29t-68.5 29t-27.5 68zM594 1178q0 41 28.5 69.5t67.5 28.5t67.5 -28.5t28.5 -69.5q0 -39 -28.5 -68t-67.5 -29t-67.5 29t-28.5 68zM379 -354q-78 -139 -189 -140q-39 0 -65.5 20.5
t-26.5 51.5q0 23 20.5 45.5t59.5 22.5q10 0 29.5 -5.5t34.5 -5.5q72 0 112 78q59 129 78 181q33 86 -26 223l-222 514q-41 98 -71.5 131t-92.5 39q-8 10 -8 24.5t8 22.5q96 -10 158 -10q68 0 221 10q23 -25 0 -47q-57 -4 -76.5 -26.5t-14.5 -49.5t26 -76l174 -405
q16 -41 26.5 -51.5t20.5 0t27 49.5l194 448q20 47 -13.5 76t-86.5 35q-8 10 -8 24.5t8 22.5q106 -10 178 -10q57 0 139 10q23 -25 0 -47q-49 -4 -98 -51.5t-72 -98.5q-123 -260 -362 -837q-39 -90 -82 -168z" />
    <glyph glyph-name="Amacron" unicode="&#x100;" horiz-adv-x="1431" 
d="M956 1372h-459q-13 0 -20 12t-7 25q0 20 14.5 43t30.5 23h461q14 0 21.5 -12t7.5 -23q0 -20 -15 -44t-34 -24zM534 569h366l-197 568h-6l-215 -530q-7 -16 6.5 -27t45.5 -11zM302 141q-5 -22 -6.5 -37t11.5 -26.5t24.5 -18.5t33.5 -11.5t39 -7t39 -3.5q9 -9 9.5 -23.5
t-9.5 -23.5q-29 1 -101.5 5.5t-119.5 4.5q-44 0 -107.5 -4.5t-95.5 -5.5q-9 9 -9 23.5t9 23.5q75 5 121.5 35t83.5 116l475 1119q38 0 107 41l428 -1192q13 -38 31.5 -61.5t46 -35t48 -15.5t58.5 -7q9 -9 9 -23.5t-9 -23.5q-27 1 -113.5 5.5t-134.5 4.5q-46 0 -144.5 -5
t-123.5 -5q-9 9 -9 23.5t9 23.5q7 0 20 1q22 1 32.5 2t28.5 3.5t27 5t21 7t16.5 10.5t9 14.5t3.5 20.5t-6 26l-130 377h-427q-34 0 -48.5 -11t-23.5 -34z" />
    <glyph glyph-name="amacron" unicode="&#x101;" horiz-adv-x="929" 
d="M659 1044h-458q-27 0 -27 37q0 20 14.5 43t30.5 23h461q29 0 29 -35q0 -20 -16 -44t-34 -24zM600 434l-168 -41q-100 -25 -148 -82t-48 -123q0 -53 41.5 -100t109.5 -47q12 0 28.5 5t29 11t33 20.5t29.5 21.5t30.5 24.5t25.5 21.5q25 18 27 50zM590 94h-4l-39 -31
q-66 -51 -109 -67t-108 -16q-244 0 -244 200q0 98 88 170t234 105l184 41q10 4 10 43q0 150 -46 212t-107.5 62t-109.5 -24.5t-48 -67.5q0 -27 4 -39q6 -12 6 -34.5t-25.5 -49.5t-64.5 -27q-35 0 -56.5 22.5t-21.5 57.5q0 78 105.5 142.5t226.5 64.5q291 0 278 -332
l-10 -290q-4 -92 12.5 -133.5t69.5 -41.5q25 0 41 16.5t18 16.5q8 0 18.5 -8t10.5 -18q0 -6 -20.5 -27t-61.5 -41t-84 -20q-112 -1 -147 114z" />
    <glyph glyph-name="Abreve" unicode="&#x102;" horiz-adv-x="1431" 
d="M1021 1647q-9 -105 -90.5 -168.5t-187.5 -63.5q-114 0 -192.5 63t-86.5 169h57q12 -58 74.5 -91.5t147.5 -33.5q80 0 145.5 33.5t75.5 91.5h57zM534 569h366l-197 568h-6l-215 -530q-7 -16 6.5 -27t45.5 -11zM302 141q-5 -22 -6.5 -37t11.5 -26.5t24.5 -18.5t33.5 -11.5
t39 -7t39 -3.5q9 -9 9.5 -23.5t-9.5 -23.5q-29 1 -101.5 5.5t-119.5 4.5q-44 0 -107.5 -4.5t-95.5 -5.5q-9 9 -9 23.5t9 23.5q75 5 121.5 35t83.5 116l475 1119q38 0 107 41l428 -1192q13 -38 31.5 -61.5t46 -35t48 -15.5t58.5 -7q9 -9 9 -23.5t-9 -23.5q-27 1 -113.5 5.5
t-134.5 4.5q-46 0 -144.5 -5t-123.5 -5q-9 9 -9 23.5t9 23.5q7 0 20 1q22 1 32.5 2t28.5 3.5t27 5t21 7t16.5 10.5t9 14.5t3.5 20.5t-6 26l-130 377h-427q-34 0 -48.5 -11t-23.5 -34z" />
    <glyph glyph-name="abreve" unicode="&#x103;" horiz-adv-x="929" 
d="M201 1346q16 -82 77.5 -133.5t143.5 -51.5t144.5 49.5t76.5 135.5l55 -25q-18 -127 -99 -202t-177 -75q-109 0 -182.5 73t-94.5 204zM600 434l-168 -41q-100 -25 -148 -82t-48 -123q0 -53 41.5 -100t109.5 -47q12 0 28.5 5t29 11t33 20.5t29.5 21.5t30.5 24.5t25.5 21.5
q25 18 27 50zM590 94h-4l-39 -31q-66 -51 -109 -67t-108 -16q-244 0 -244 200q0 98 88 170t234 105l184 41q10 4 10 43q0 150 -46 212t-107.5 62t-109.5 -24.5t-48 -67.5q0 -27 4 -39q6 -12 6 -34.5t-25.5 -49.5t-64.5 -27q-35 0 -56.5 22.5t-21.5 57.5q0 78 105.5 142.5
t226.5 64.5q291 0 278 -332l-10 -290q-4 -92 12.5 -133.5t69.5 -41.5q25 0 41 16.5t18 16.5q8 0 18.5 -8t10.5 -18q0 -6 -20.5 -27t-61.5 -41t-84 -20q-112 -1 -147 114z" />
    <glyph glyph-name="Aogonek" unicode="&#x104;" horiz-adv-x="1431" 
d="M1056 -276q-86 -133 -225 -134q-180 0 -181 152q0 77 68 160.5t175 114.5q1 12 9 20q7 0 20 1q22 1 32.5 2t28.5 3.5t27 5t21 7t16.5 10.5t9 14.5t3.5 20.5t-6 26l-130 377h-427q-34 0 -48.5 -11t-23.5 -34l-123 -318q-5 -22 -6.5 -37t11.5 -26.5t24.5 -18.5t33.5 -11.5
t39 -7t39 -3.5q9 -9 9.5 -23.5t-9.5 -23.5q-29 1 -101.5 5.5t-119.5 4.5q-44 0 -107.5 -4.5t-95.5 -5.5q-9 9 -9 23.5t9 23.5q75 5 121.5 35t83.5 116l475 1119q38 0 107 41l428 -1192q13 -38 31.5 -61.5t46 -35t48 -15.5t58.5 -7q9 -9 9 -23.5t-9 -23.5q-27 1 -113.5 5.5
t-134.5 4.5q-50 0 -180 -7q-90 -13 -151.5 -85.5t-61.5 -143.5q0 -96 103 -96q28 0 53 11.5t40 24.5t44 42q26 1 39 -22zM534 569h366l-197 568h-6l-215 -530q-7 -16 6.5 -27t45.5 -11z" />
    <glyph glyph-name="aogonek" unicode="&#x105;" horiz-adv-x="929" 
d="M942 -276q-86 -133 -225 -134q-180 0 -180 152q0 111 172 240q-89 13 -119 112h-4l-39 -31q-66 -51 -109 -67t-108 -16q-244 0 -244 200q0 98 88 170t234 105l184 41q10 4 10 43q0 150 -46 212t-107.5 62t-109.5 -24.5t-48 -67.5q0 -27 4 -39q6 -12 6 -34.5t-25.5 -49.5
t-64.5 -27q-35 0 -56.5 22.5t-21.5 57.5q0 78 105.5 142.5t226.5 64.5q291 0 278 -332l-10 -290q-4 -92 12.5 -133.5t69.5 -41.5q8 0 16 2q14 4 26.5 17.5t16.5 13.5q8 0 18.5 -8t10.5 -18q0 -4 -8.5 -14.5t-26 -25t-38.5 -25.5q-89 -75 -127.5 -126.5t-38.5 -112.5
q0 -96 102 -96q29 0 53.5 11.5t39.5 24.5t44 42q27 1 39 -22zM600 434l-168 -41q-100 -25 -148 -82t-48 -123q0 -53 41.5 -100t109.5 -47q12 0 28.5 5t29 11t33 20.5t29.5 21.5t30.5 24.5t25.5 21.5q25 18 27 50z" />
    <glyph glyph-name="Cacute" unicode="&#x106;" horiz-adv-x="1331" 
d="M795 1677q88 -41 127 -106l-295 -119q-57 -25 -86 -25q-31 0 -31 31q0 23 31 43zM719 -20q-315 0 -479 188t-164 477q0 297 184 500t481 203q147 0 287.5 -45.5t161.5 -47.5q31 -170 45 -317q-18 -12 -47 -10q-111 365 -457 364q-193 0 -332 -178t-139 -430
q0 -156 51 -294t163 -232.5t263 -94.5q143 0 255 52.5t220 171.5q31 0 48 -31q-102 -133 -245.5 -204.5t-295.5 -71.5z" />
    <glyph glyph-name="cacute" unicode="&#x107;" horiz-adv-x="858" 
d="M520 1343q12 4 29 5q63 0 113 -48l6 -22l-236 -223q-39 -39 -61 -39q-10 0 -19.5 8t-9.5 18q0 20 23 58zM797 178q-123 -199 -328 -198q-182 0 -289.5 117.5t-107.5 308.5q0 197 128 324.5t283 127.5q139 0 225.5 -52t86.5 -134q0 -43 -29 -64.5t-66 -21.5q-66 0 -73 69
q-18 156 -154 156q-100 0 -173 -102.5t-73 -259.5q0 -178 83 -286t202 -108q63 0 134 40t120 104q23 -3 31 -21z" />
    <glyph glyph-name="Ccircumflex" unicode="&#x108;" horiz-adv-x="1331" 
d="M762 1657q90 -109 211 -199q-10 -33 -33 -43q-133 61 -217 125q-96 -70 -219 -125q-23 14 -29 43q84 63 207 199q37 23 80 0zM719 -20q-315 0 -479 188t-164 477q0 297 184 500t481 203q147 0 287.5 -45.5t161.5 -47.5q31 -170 45 -317q-18 -12 -47 -10
q-111 365 -457 364q-193 0 -332 -178t-139 -430q0 -156 51 -294t163 -232.5t263 -94.5q143 0 255 52.5t220 171.5q31 0 48 -31q-102 -133 -245.5 -204.5t-295.5 -71.5z" />
    <glyph glyph-name="ccircumflex" unicode="&#x109;" horiz-adv-x="858" 
d="M489 1343q76 -123 224 -286q-20 -29 -47 -35q-119 76 -211 170q-115 -115 -213 -170q-27 6 -45 35q156 172 227 286q34 8 65 0zM797 178q-123 -199 -328 -198q-182 0 -289.5 117.5t-107.5 308.5q0 197 128 324.5t283 127.5q139 0 225.5 -52t86.5 -134q0 -43 -29 -64.5
t-66 -21.5q-66 0 -73 69q-18 156 -154 156q-100 0 -173 -102.5t-73 -259.5q0 -178 83 -286t202 -108q63 0 134 40t120 104q23 -3 31 -21z" />
    <glyph glyph-name="Cdotaccent" unicode="&#x10a;" horiz-adv-x="1331" 
d="M614 1634q0 43 32 75t75 32t74.5 -32t31.5 -75t-31.5 -74.5t-74.5 -31.5t-75 31.5t-32 74.5zM719 -20q-315 0 -479 188t-164 477q0 297 184 500t481 203q147 0 287.5 -45.5t161.5 -47.5q31 -170 45 -317q-18 -12 -47 -10q-111 365 -457 364q-193 0 -332 -178t-139 -430
q0 -156 51 -294t163 -232.5t263 -94.5q143 0 255 52.5t220 171.5q31 0 48 -31q-102 -133 -245.5 -204.5t-295.5 -71.5z" />
    <glyph glyph-name="cdotaccent" unicode="&#x10b;" horiz-adv-x="858" 
d="M367 1229q0 37 34.5 67.5t71.5 30.5q39 0 68.5 -33.5t29.5 -72.5q0 -35 -32.5 -67t-73.5 -32q-37 0 -67.5 33t-30.5 74zM797 178q-123 -199 -328 -198q-182 0 -289.5 117.5t-107.5 308.5q0 197 128 324.5t283 127.5q139 0 225.5 -52t86.5 -134q0 -43 -29 -64.5t-66 -21.5
q-66 0 -73 69q-18 156 -154 156q-100 0 -173 -102.5t-73 -259.5q0 -178 83 -286t202 -108q63 0 134 40t120 104q23 -3 31 -21z" />
    <glyph glyph-name="Ccaron" unicode="&#x10c;" horiz-adv-x="1331" 
d="M674 1427q-74 92 -207 195l33 41q123 -53 217 -125q117 82 219 125l31 -41q-102 -78 -205 -195h-88zM719 -20q-315 0 -479 188t-164 477q0 297 184 500t481 203q147 0 287.5 -45.5t161.5 -47.5q31 -170 45 -317q-18 -12 -47 -10q-111 365 -457 364q-193 0 -332 -178
t-139 -430q0 -156 51 -294t163 -232.5t263 -94.5q143 0 255 52.5t220 171.5q31 0 48 -31q-102 -133 -245.5 -204.5t-295.5 -71.5z" />
    <glyph glyph-name="ccaron" unicode="&#x10d;" horiz-adv-x="858" 
d="M414 1022q-78 127 -207 266l41 27q145 -106 217 -185q78 80 221 185l39 -27q-137 -154 -209 -266h-102zM797 178q-123 -199 -328 -198q-182 0 -289.5 117.5t-107.5 308.5q0 197 128 324.5t283 127.5q139 0 225.5 -52t86.5 -134q0 -43 -29 -64.5t-66 -21.5q-66 0 -73 69
q-18 156 -154 156q-100 0 -173 -102.5t-73 -259.5q0 -178 83 -286t202 -108q63 0 134 40t120 104q23 -3 31 -21z" />
    <glyph glyph-name="Dcaron" unicode="&#x10e;" horiz-adv-x="1443" 
d="M318 1427q-74 91 -207 195l33 41q123 -54 217 -125q116 81 219 125l31 -41q-101 -77 -205 -195h-88zM393 223q2 -55 8.5 -83.5t30 -55.5t71.5 -36t130 -9q115 0 209 27.5t174 88t125 169t45 258.5q0 98 -19.5 194t-65.5 188.5t-114.5 162t-173 112.5t-231.5 43
q-47 0 -79 -3t-52.5 -17.5t-31.5 -22.5t-16.5 -38t-6.5 -44t-3 -59q-8 -344 -8 -443q0 -209 8 -432zM303 1321q31 0 155 5t201 5q293 0 502 -206.5t209 -493.5q0 -145 -43 -260t-110.5 -184.5t-158.5 -115.5t-180.5 -63.5t-181.5 -17.5q-123 0 -245.5 5t-143.5 5
q-57 0 -140 -5t-126 -5q-8 10 -8 24.5t8 22.5q113 4 143.5 33.5t32.5 152.5q8 340 8 434q0 100 -8 441q-2 123 -32.5 152.5t-143.5 33.5q-8 10 -8 24.5t8 22.5q45 0 126 -5t136 -5z" />
    <glyph glyph-name="dcaron" unicode="&#x10f;" horiz-adv-x="1118" 
d="M1030 1430q55 0 89 -45.5t34 -104.5q0 -66 -55.5 -136.5t-153.5 -80.5l-10 35q59 12 94 56t35 85q0 43 -29 43q-94 0 -94 78q0 27 23.5 48.5t66.5 21.5zM674 221l4 412q0 70 -33 106q-59 70 -164 70q-127 0 -192 -98q-57 -82 -58 -279q0 -172 71 -276.5t157 -104.5
q78 0 184 94q29 27 31 76zM651 98q-147 -119 -243 -118q-154 0 -243 116.5t-89 300.5q0 207 135 342q125 119 293 119q29 0 65.5 -9t62 -17.5t27.5 -8.5q18 0 19 19q0 236 -4 338q-4 115 -22.5 135t-102.5 24q-18 18 -12 39q172 14 262 52q25 0 24 -19q-4 -57 -8 -184
q-4 -78 -4 -498t4 -496q4 -78 29.5 -106.5t113.5 -36.5q16 -16 0 -31q-150 -18 -225 -79q-23 -6 -37 0q-20 70 -20 116q0 22 -25 2z" />
    <glyph glyph-name="Dcroat" unicode="&#x110;" horiz-adv-x="1443" 
d="M553 680q8 0 12 -3t2 -9l-6 -35q-2 -16 -43 -17h-133q0 -186 8 -393q2 -55 8.5 -83.5t30 -55.5t71.5 -36t130 -9q115 0 209 27.5t174 88t125 169t45 258.5q0 98 -19.5 194t-65.5 188.5t-114.5 162t-173 112.5t-231.5 43q-47 0 -79 -3t-52.5 -17.5t-31.5 -22.5t-16.5 -38
t-6.5 -44t-3 -59q-8 -336 -8 -418h168zM303 1321q31 0 155 5t201 5q293 0 502 -206.5t209 -493.5q0 -145 -43 -260t-110.5 -184.5t-158.5 -115.5t-180.5 -63.5t-181.5 -17.5q-123 0 -245.5 5t-143.5 5q-57 0 -140 -5t-126 -5q-8 10 -8 24.5t8 22.5q113 4 143.5 33.5
t32.5 152.5q8 336 8 393h-180q-12 0 -10 13l4 22q4 29 45 29h141q0 86 -8 418q-2 123 -32.5 152.5t-143.5 33.5q-8 10 -8 24.5t8 22.5q45 0 126 -5t136 -5z" />
    <glyph glyph-name="dcroat" unicode="&#x111;" horiz-adv-x="997" 
d="M942 1165q8 0 12 -3t2 -9l-6 -35q-2 -16 -43 -16h-94q-2 -189 -1 -499t3 -370q4 -78 29.5 -106.5t113.5 -36.5q16 -16 0 -31q-150 -18 -225 -79q-23 -6 -37 0q-20 70 -20 116q0 23 -25 2q-147 -119 -243 -118q-154 0 -243 116.5t-89 300.5q0 207 135 342q125 119 293 119
q29 0 65.5 -9t62 -17.5t27.5 -8.5q18 0 19 19q-2 147 -2 260h-242q-12 0 -10 12l4 23q4 29 45 28h201v15q-4 115 -22.5 135t-102.5 24q-18 18 -12 39q172 14 262 52q25 0 24 -19q-4 -57 -8 -184q-1 -17 -1 -62h128zM674 221l4 412q0 70 -33 106q-59 70 -164 70
q-127 0 -192 -98q-57 -82 -58 -279q0 -172 71 -276.5t157 -104.5q78 0 184 94q29 27 31 76z" />
    <glyph glyph-name="Emacron" unicode="&#x112;" horiz-adv-x="1161" 
d="M797 1509h-458q-13 0 -20 12t-7 25q0 20 14.5 43t30.5 23h461q14 0 21.5 -11.5t7.5 -23.5q0 -20 -15.5 -44t-34.5 -24zM623 731q125 2 154.5 25.5t33.5 111.5q23 23 45 0q0 -20 -4 -78.5t-4 -97.5q0 -33 4 -80t4 -80q-23 -23 -45 0q-4 55 -13.5 79t-50 41.5t-124.5 17.5
l-240 2q-2 -358 4 -531q4 -88 76 -88h319q188 0 271 295q23 6 49 -10q-31 -193 -74 -348q-164 10 -262 10h-455q-31 0 -126 -5t-144 -5q-8 10 -8 24.5t8 22.5q113 4 142.5 33.5t33.5 152.5q4 168 4 434q0 272 -4 441q-4 123 -33.5 152.5t-142.5 33.5q-8 10 -8 24.5t8 22.5
q51 0 143 -5t123 -5h598q20 0 103 14q8 0 8 -6q16 -63 45 -303q-29 -14 -49 -10q-23 72 -35 101.5t-38 72.5t-63.5 59.5t-93.5 16.5h-319q-72 0 -76 -90l-4 -447z" />
    <glyph glyph-name="emacron" unicode="&#x113;" horiz-adv-x="890" 
d="M690 1044h-459q-27 0 -26 37q0 20 14 43t31 23h461q29 0 28 -35q0 -20 -15.5 -44t-33.5 -24zM233 530l396 11q29 0 28 26q0 117 -54 180.5t-130 63.5q-72 0 -143.5 -67t-96.5 -214zM774 182q33 -2 41 -32q-129 -170 -342 -170q-205 0 -309 124q-92 106 -92 291
q0 209 125 336t276 127q186 0 263 -99.5t77 -244.5q0 -35 -37 -35l-549 -8q0 -174 62 -274q43 -70 108.5 -106t124.5 -36q78 0 134.5 32t117.5 95z" />
    <glyph glyph-name="Ebreve" unicode="&#x114;" horiz-adv-x="1161" 
d="M902 1645q-9 -105 -90.5 -168.5t-188.5 -63.5q-114 0 -192.5 63t-85.5 169h57q12 -58 74.5 -91.5t146.5 -33.5q80 0 145.5 33.5t76.5 91.5h57zM623 731q125 2 154.5 25.5t33.5 111.5q23 23 45 0q0 -20 -4 -78.5t-4 -97.5q0 -33 4 -80t4 -80q-23 -23 -45 0q-4 55 -13.5 79
t-50 41.5t-124.5 17.5l-240 2q-2 -358 4 -531q4 -88 76 -88h319q188 0 271 295q23 6 49 -10q-31 -193 -74 -348q-164 10 -262 10h-455q-31 0 -126 -5t-144 -5q-8 10 -8 24.5t8 22.5q113 4 142.5 33.5t33.5 152.5q4 168 4 434q0 272 -4 441q-4 123 -33.5 152.5t-142.5 33.5
q-8 10 -8 24.5t8 22.5q51 0 143 -5t123 -5h598q20 0 103 14q8 0 8 -6q16 -63 45 -303q-29 -14 -49 -10q-23 72 -35 101.5t-38 72.5t-63.5 59.5t-93.5 16.5h-319q-72 0 -76 -90l-4 -447z" />
    <glyph glyph-name="ebreve" unicode="&#x115;" horiz-adv-x="890" 
d="M246 1288q16 -82 77.5 -133t143.5 -51t144.5 49t76.5 135l55 -24q-18 -127 -99 -202t-177 -75q-109 0 -182.5 73t-94.5 204zM233 530l396 11q29 0 28 26q0 117 -54 180.5t-130 63.5q-72 0 -143.5 -67t-96.5 -214zM774 182q33 -2 41 -32q-129 -170 -342 -170
q-205 0 -309 124q-92 106 -92 291q0 209 125 336t276 127q186 0 263 -99.5t77 -244.5q0 -35 -37 -35l-549 -8q0 -174 62 -274q43 -70 108.5 -106t124.5 -36q78 0 134.5 32t117.5 95z" />
    <glyph glyph-name="Edotaccent" unicode="&#x116;" horiz-adv-x="1161" 
d="M516 1634q0 43 32 75t75 32t74.5 -32t31.5 -75t-31.5 -74.5t-74.5 -31.5t-75 31.5t-32 74.5zM623 731q125 2 154.5 25.5t33.5 111.5q23 23 45 0q0 -20 -4 -78.5t-4 -97.5q0 -33 4 -80t4 -80q-23 -23 -45 0q-4 55 -13.5 79t-50 41.5t-124.5 17.5l-240 2q-2 -358 4 -531
q4 -88 76 -88h319q188 0 271 295q23 6 49 -10q-31 -193 -74 -348q-164 10 -262 10h-455q-31 0 -126 -5t-144 -5q-8 10 -8 24.5t8 22.5q113 4 142.5 33.5t33.5 152.5q4 168 4 434q0 272 -4 441q-4 123 -33.5 152.5t-142.5 33.5q-8 10 -8 24.5t8 22.5q51 0 143 -5t123 -5h598
q20 0 103 14q8 0 8 -6q16 -63 45 -303q-29 -14 -49 -10q-23 72 -35 101.5t-38 72.5t-63.5 59.5t-93.5 16.5h-319q-72 0 -76 -90l-4 -447z" />
    <glyph glyph-name="edotaccent" unicode="&#x117;" horiz-adv-x="890" 
d="M369 1227q0 37 34.5 67.5t71.5 30.5q39 0 68.5 -34t29.5 -72q0 -35 -32.5 -67t-73.5 -32q-37 0 -67.5 34t-30.5 73zM233 530l396 11q29 0 28 26q0 117 -54 180.5t-130 63.5q-72 0 -143.5 -67t-96.5 -214zM774 182q33 -2 41 -32q-129 -170 -342 -170q-205 0 -309 124
q-92 106 -92 291q0 209 125 336t276 127q186 0 263 -99.5t77 -244.5q0 -35 -37 -35l-549 -8q0 -174 62 -274q43 -70 108.5 -106t124.5 -36q78 0 134.5 32t117.5 95z" />
    <glyph glyph-name="Eogonek" unicode="&#x118;" horiz-adv-x="1161" 
d="M1035 -276q-86 -133 -225 -134q-180 0 -180 152q0 67 53.5 142t141.5 115q-28 1 -59 1h-455q-31 0 -126 -5t-144 -5q-8 10 -8 24.5t8 22.5q113 4 142.5 33.5t33.5 152.5q4 168 4 434q0 272 -4 441q-4 123 -33.5 152.5t-142.5 33.5q-8 10 -8 24.5t8 22.5q51 0 143 -5
t123 -5h598q20 0 103 14q8 0 8 -6q16 -63 45 -303q-29 -14 -49 -10q-23 72 -35 101.5t-38 72.5t-63.5 59.5t-93.5 16.5h-319q-72 0 -76 -90l-4 -447l240 2q125 2 154.5 25.5t33.5 111.5q23 23 45 0q0 -20 -4 -78.5t-4 -97.5q0 -33 4 -80t4 -80q-23 -23 -45 0q-4 55 -13.5 79
t-50 41.5t-124.5 17.5l-240 2q-2 -358 4 -531q4 -88 76 -88h319q188 0 271 295q23 6 49 -10q-31 -193 -74 -348q-25 2 -61 3q-89 -14 -149.5 -86t-60.5 -143q0 -96 102 -96q28 0 53 11.5t40 24.5t44 42q26 1 39 -22z" />
    <glyph glyph-name="eogonek" unicode="&#x119;" horiz-adv-x="890" 
d="M764 -276q-86 -133 -225 -134q-180 0 -181 152q0 111 156 239q-20 -2 -41 -1q-205 0 -309 124q-92 106 -92 291q0 209 125 336t276 127q186 0 263 -99.5t77 -244.5q0 -35 -37 -35l-549 -8q0 -174 62 -274q43 -70 108.5 -106t124.5 -36q78 0 134.5 32t117.5 95
q33 -2 41 -32q-68 -90 -165 -134q-88 -78 -126.5 -134.5t-38.5 -117.5q0 -96 103 -96q29 0 53.5 11.5t39.5 24.5t44 42q27 1 39 -22zM233 530l396 11q29 0 28 26q0 117 -54 180.5t-130 63.5q-72 0 -143.5 -67t-96.5 -214z" />
    <glyph glyph-name="Ecaron" unicode="&#x11a;" horiz-adv-x="1161" 
d="M558 1427q-74 91 -207 195l33 41q123 -54 217 -125q116 81 219 125l31 -41q-101 -77 -205 -195h-88zM623 731q125 2 154.5 25.5t33.5 111.5q23 23 45 0q0 -20 -4 -78.5t-4 -97.5q0 -33 4 -80t4 -80q-23 -23 -45 0q-4 55 -13.5 79t-50 41.5t-124.5 17.5l-240 2
q-2 -358 4 -531q4 -88 76 -88h319q188 0 271 295q23 6 49 -10q-31 -193 -74 -348q-164 10 -262 10h-455q-31 0 -126 -5t-144 -5q-8 10 -8 24.5t8 22.5q113 4 142.5 33.5t33.5 152.5q4 168 4 434q0 272 -4 441q-4 123 -33.5 152.5t-142.5 33.5q-8 10 -8 24.5t8 22.5
q51 0 143 -5t123 -5h598q20 0 103 14q8 0 8 -6q16 -63 45 -303q-29 -14 -49 -10q-23 72 -35 101.5t-38 72.5t-63.5 59.5t-93.5 16.5h-319q-72 0 -76 -90l-4 -447z" />
    <glyph glyph-name="ecaron" unicode="&#x11b;" horiz-adv-x="890" 
d="M408 1020q-78 127 -207 266l41 27q145 -106 217 -185q78 80 221 185l39 -27q-137 -154 -209 -266h-102zM233 530l396 11q29 0 28 26q0 117 -54 180.5t-130 63.5q-72 0 -143.5 -67t-96.5 -214zM774 182q33 -2 41 -32q-129 -170 -342 -170q-205 0 -309 124q-92 106 -92 291
q0 209 125 336t276 127q186 0 263 -99.5t77 -244.5q0 -35 -37 -35l-549 -8q0 -174 62 -274q43 -70 108.5 -106t124.5 -36q78 0 134.5 32t117.5 95z" />
    <glyph glyph-name="Gcircumflex" unicode="&#x11c;" horiz-adv-x="1454" 
d="M788 1655q90 -108 211 -199q-10 -34 -33 -43q-134 62 -217 125q-95 -70 -219 -125q-22 15 -29 43q83 63 207 199q36 22 80 0zM766 1348q141 0 271 -46.5t175 -46.5q20 -106 45 -315q-16 -12 -49 -12q-111 365 -471 364q-199 0 -346 -179t-147 -443q0 -104 36.5 -214
t104.5 -205t177.5 -156.5t240.5 -61.5q80 0 165 33.5t138 85.5v331q0 57 -36 73.5t-132 25.5q-8 8 -8 26.5t8 26.5q43 0 127 -5t127 -5q47 0 97 5t73 5q10 -8 10 -26.5t-10 -26.5q-49 -4 -71.5 -25.5t-22.5 -73.5v-256q0 -31 32 -57q-223 -190 -544 -190q-303 0 -496.5 188
t-193.5 461q0 217 102 384t260 251t338 84z" />
    <glyph glyph-name="gcircumflex" unicode="&#x11d;" horiz-adv-x="989" 
d="M504 1296q76 -123 223 -286q-20 -29 -47 -35q-119 76 -211 170q-115 -115 -213 -170q-27 6 -45 35q156 172 227 286q35 8 66 0zM629 545q0 123 -51.5 194.5t-143.5 71.5q-80 0 -122 -58.5t-42 -162.5q0 -283 189 -283q66 0 118 57.5t52 180.5zM258 -20q-68 -80 -68 -203
q0 -98 71 -164t171 -66q137 0 253 76t116 178q0 84 -101 142q-66 35 -221 34q-8 0 -58 -3t-85 -3q-51 1 -78 9zM866 756q-35 0 -53 35q-16 25 -39 24q-18 0 -43.5 -15.5t-36.5 -31.5q82 -84 82 -203q0 -137 -96 -221t-231 -84q-92 0 -177 47q-43 -63 -43 -114.5t42 -87
t89 -35.5q2 0 60 4q78 10 131 10q207 0 285 -66q86 -71 86 -165q0 -152 -170 -254.5t-379 -102.5q-125 0 -219.5 61.5t-94.5 180.5q0 66 44 138.5t120 117.5q-111 39 -110 151q0 106 106 197q-96 92 -96 219q0 131 96 214t232 83q127 0 202 -55q35 45 94.5 71.5t102.5 26.5
q39 0 64.5 -20.5t25.5 -51.5q0 -29 -22.5 -51t-51.5 -22z" />
    <glyph glyph-name="Gbreve" unicode="&#x11e;" horiz-adv-x="1454" 
d="M1023 1651q-9 -105 -90.5 -168.5t-187.5 -63.5q-114 0 -192.5 63t-86.5 169h57q12 -58 74.5 -91.5t147.5 -33.5q80 0 145.5 34t75.5 91h57zM766 1348q141 0 271 -46.5t175 -46.5q20 -106 45 -315q-16 -12 -49 -12q-111 365 -471 364q-199 0 -346 -179t-147 -443
q0 -104 36.5 -214t104.5 -205t177.5 -156.5t240.5 -61.5q80 0 165 33.5t138 85.5v331q0 57 -36 73.5t-132 25.5q-8 8 -8 26.5t8 26.5q43 0 127 -5t127 -5q47 0 97 5t73 5q10 -8 10 -26.5t-10 -26.5q-49 -4 -71.5 -25.5t-22.5 -73.5v-256q0 -31 32 -57q-223 -190 -544 -190
q-303 0 -496.5 188t-193.5 461q0 217 102 384t260 251t338 84z" />
    <glyph glyph-name="gbreve" unicode="&#x11f;" horiz-adv-x="989" 
d="M229 1280q16 -82 78 -133t143.5 -51t144 49t77.5 135l55 -25q-18 -127 -99 -201.5t-177 -74.5q-109 0 -182.5 72.5t-94.5 203.5zM629 545q0 123 -51.5 194.5t-143.5 71.5q-80 0 -122 -58.5t-42 -162.5q0 -283 189 -283q66 0 118 57.5t52 180.5zM258 -20q-68 -80 -68 -203
q0 -98 71 -164t171 -66q137 0 253 76t116 178q0 84 -101 142q-66 35 -221 34q-8 0 -58 -3t-85 -3q-51 1 -78 9zM866 756q-35 0 -53 35q-16 25 -39 24q-18 0 -43.5 -15.5t-36.5 -31.5q82 -84 82 -203q0 -137 -96 -221t-231 -84q-92 0 -177 47q-43 -63 -43 -114.5t42 -87
t89 -35.5q2 0 60 4q78 10 131 10q207 0 285 -66q86 -71 86 -165q0 -152 -170 -254.5t-379 -102.5q-125 0 -219.5 61.5t-94.5 180.5q0 66 44 138.5t120 117.5q-111 39 -110 151q0 106 106 197q-96 92 -96 219q0 131 96 214t232 83q127 0 202 -55q35 45 94.5 71.5t102.5 26.5
q39 0 64.5 -20.5t25.5 -51.5q0 -29 -22.5 -51t-51.5 -22z" />
    <glyph glyph-name="Gdotaccent" unicode="&#x120;" horiz-adv-x="1454" 
d="M626 1866q0 43 31.5 74.5t74.5 31.5t75 -31.5t32 -74.5t-32 -75t-75 -32t-74.5 32t-31.5 75zM766 1348q141 0 271 -46.5t175 -46.5q20 -106 45 -315q-16 -12 -49 -12q-111 365 -471 364q-199 0 -346 -179t-147 -443q0 -104 36.5 -214t104.5 -205t177.5 -156.5
t240.5 -61.5q80 0 165 33.5t138 85.5v331q0 57 -36 73.5t-132 25.5q-8 8 -8 26.5t8 26.5q43 0 127 -5t127 -5q47 0 97 5t73 5q10 -8 10 -26.5t-10 -26.5q-49 -4 -71.5 -25.5t-22.5 -73.5v-256q0 -31 32 -57q-223 -190 -544 -190q-303 0 -496.5 188t-193.5 461q0 217 102 384
t260 251t338 84z" />
    <glyph glyph-name="gdotaccent" unicode="&#x121;" horiz-adv-x="989" 
d="M348 1227q0 37 35 67.5t72 30.5q39 0 68.5 -34t29.5 -72q0 -35 -33 -67t-74 -32q-37 0 -67.5 34t-30.5 73zM629 545q0 123 -51.5 194.5t-143.5 71.5q-80 0 -122 -58.5t-42 -162.5q0 -283 189 -283q66 0 118 57.5t52 180.5zM258 -20q-68 -80 -68 -203q0 -98 71 -164
t171 -66q137 0 253 76t116 178q0 84 -101 142q-66 35 -221 34q-8 0 -58 -3t-85 -3q-51 1 -78 9zM866 756q-35 0 -53 35q-16 25 -39 24q-18 0 -43.5 -15.5t-36.5 -31.5q82 -84 82 -203q0 -137 -96 -221t-231 -84q-92 0 -177 47q-43 -63 -43 -114.5t42 -87t89 -35.5q2 0 60 4
q78 10 131 10q207 0 285 -66q86 -71 86 -165q0 -152 -170 -254.5t-379 -102.5q-125 0 -219.5 61.5t-94.5 180.5q0 66 44 138.5t120 117.5q-111 39 -110 151q0 106 106 197q-96 92 -96 219q0 131 96 214t232 83q127 0 202 -55q35 45 94.5 71.5t102.5 26.5q39 0 64.5 -20.5
t25.5 -51.5q0 -29 -22.5 -51t-51.5 -22z" />
    <glyph glyph-name="Gcommaaccent" unicode="&#x122;" horiz-adv-x="1454" 
d="M771 -84q58 0 92.5 -48t34.5 -128q0 -87 -60.5 -137.5t-156.5 -65.5q-16 16 -16 49q71 16 112 47.5t41 61.5q0 28 -15.5 39t-47.5 14q-86 15 -86 80q0 37 29 62.5t73 25.5zM766 1348q141 0 271 -46.5t175 -46.5q20 -106 45 -315q-16 -12 -49 -12q-111 365 -471 364
q-199 0 -346 -179t-147 -443q0 -104 36.5 -214t104.5 -205t177.5 -156.5t240.5 -61.5q80 0 165 33.5t138 85.5v331q0 57 -36 73.5t-132 25.5q-8 8 -8 26.5t8 26.5q43 0 127 -5t127 -5q47 0 97 5t73 5q10 -8 10 -26.5t-10 -26.5q-49 -4 -71.5 -25.5t-22.5 -73.5v-256
q0 -31 32 -57q-223 -190 -544 -190q-303 0 -496.5 188t-193.5 461q0 217 102 384t260 251t338 84z" />
    <glyph glyph-name="gcommaaccent" unicode="&#x123;" horiz-adv-x="989" 
d="M467 1047q-57 0 -92 45t-35 104q0 76 47 135q59 74 170 88q10 -10 10 -41q-80 -16 -118.5 -56t-38.5 -81q0 -12 1 -18t6 -8.5t9 -2.5t17.5 1t25.5 1q55 0 78.5 -25.5t23.5 -58.5q0 -29 -27.5 -56t-76.5 -27zM629 545q0 123 -51.5 194.5t-143.5 71.5q-80 0 -122 -58.5
t-42 -162.5q0 -283 189 -283q66 0 118 57.5t52 180.5zM258 -20q-68 -80 -68 -203q0 -98 71 -164t171 -66q137 0 253 76t116 178q0 84 -101 142q-66 35 -221 34q-8 0 -58 -3t-85 -3q-51 1 -78 9zM866 756q-35 0 -53 35q-16 25 -39 24q-18 0 -43.5 -15.5t-36.5 -31.5
q82 -84 82 -203q0 -137 -96 -221t-231 -84q-92 0 -177 47q-43 -63 -43 -114.5t42 -87t89 -35.5q2 0 60 4q78 10 131 10q207 0 285 -66q86 -71 86 -165q0 -152 -170 -254.5t-379 -102.5q-125 0 -219.5 61.5t-94.5 180.5q0 66 44 138.5t120 117.5q-111 39 -110 151
q0 106 106 197q-96 92 -96 219q0 131 96 214t232 83q127 0 202 -55q35 45 94.5 71.5t102.5 26.5q39 0 64.5 -20.5t25.5 -51.5q0 -29 -22.5 -51t-51.5 -22z" />
    <glyph glyph-name="Hcircumflex" unicode="&#x124;" horiz-adv-x="1492" 
d="M391 223q2 -123 33 -152.5t143 -33.5q23 -25 0 -47q-45 0 -126 5t-136 5q-57 0 -139 -5t-125 -5q-8 10 -8 24.5t8 22.5q113 4 143.5 33.5t32.5 152.5q8 340 8 434q0 100 -8 441q-2 123 -32.5 152.5t-143.5 33.5q-8 10 -8 24.5t8 22.5q45 0 125 -5t135 -5q57 0 140 5
t126 5q23 -25 0 -47q-113 -4 -143.5 -33.5t-32.5 -152.5q-6 -215 -6 -357q20 -14 336 -14q360 0 377 14q0 213 -4 357q-2 123 -35 152.5t-146 33.5q-8 10 -8 24.5t8 22.5q45 0 127 -5t138 -5q57 0 140 5t126 5q23 -25 0 -47q-113 -4 -145.5 -33.5t-34.5 -152.5
q-4 -172 -4 -443q0 -264 4 -432q2 -123 34.5 -152.5t145.5 -33.5q23 -25 0 -47q-45 0 -128 5t-138 5q-57 0 -139.5 -5t-125.5 -5q-8 10 -8 24.5t8 22.5q113 4 146 33.5t35 152.5q2 88 3 238.5t1 197.5q-29 14 -379 15q-303 0 -334 -15q0 -178 6 -436zM796 1651
q90 -108 211 -199q-10 -34 -32 -43q-134 62 -217 125q-95 -70 -220 -125q-22 15 -28 43q83 63 207 199q35 22 79 0z" />
    <glyph glyph-name="hcircumflex" unicode="&#x125;" horiz-adv-x="1046" 
d="M582 1710q90 -109 211 -199q-10 -33 -33 -43q-133 61 -217 125q-96 -70 -219 -125q-23 14 -29 43q84 63 207 199q37 23 80 0zM322 559q0 -244 4 -346q4 -119 22.5 -144.5t93.5 -31.5q8 -8 8.5 -22.5t-8.5 -24.5q-37 0 -91 5t-95 5q-45 0 -110.5 -5t-98.5 -5q-23 23 0 47
q88 6 110.5 32.5t26.5 143.5q4 92 4 483t-4 484q-4 115 -22.5 135t-102.5 24q-18 18 -12 39q172 14 262 52q25 0 25 -19q-6 -145 -8 -184l-7 -529q0 -27 21 0q143 160 336 160q111 0 162 -67q55 -72 47 -263q-6 -158 0 -315q4 -117 25.5 -142.5t105.5 -33.5q20 -23 0 -47
q-39 0 -98.5 5t-102.5 5q-41 0 -99.5 -5t-94.5 -5q-20 25 0 47q78 8 97 33.5t23 142.5q6 162 0 322q-6 150 -28 192q-35 70 -105 70q-98 0 -254 -156q-32 -33 -32 -82z" />
    <glyph glyph-name="Hbar" unicode="&#x126;" horiz-adv-x="1492" 
d="M391 223q2 -123 33 -152.5t143 -33.5q23 -25 0 -47q-45 0 -126 5t-136 5q-57 0 -139 -5t-125 -5q-8 10 -8 24.5t8 22.5q113 4 143.5 33.5t32.5 152.5q8 340 8 434q0 123 -7 392h-149v69h147q-2 58 -9 89t-30 48t-50.5 22t-85.5 7q-8 10 -8 24.5t8 22.5q45 0 125 -5
t135 -5q57 0 140 5t126 5q23 -25 0 -47q-58 -3 -85.5 -7.5t-50 -21.5t-30 -48t-9.5 -89h701q-2 57 -10 88.5t-32 48.5t-51.5 22t-86.5 7q-8 10 -8 24.5t8 22.5q45 0 127 -5t138 -5q57 0 140 5t126 5q23 -25 0 -47q-59 -3 -86.5 -7.5t-51.5 -21.5t-31.5 -48t-10.5 -89h167
v-69h-168q-3 -143 -3 -394q0 -264 4 -432q2 -123 34.5 -152.5t145.5 -33.5q23 -25 0 -47q-45 0 -128 5t-138 5q-57 0 -139.5 -5t-125.5 -5q-8 10 -8 24.5t8 22.5q113 4 146 33.5t35 152.5q2 88 3 238.5t1 197.5q-29 14 -379 15q-303 0 -334 -15q0 -178 6 -436zM1095 1049
h-705q-5 -176 -5 -308q20 -14 336 -14q360 0 377 14q0 55 -1.5 152.5t-1.5 155.5z" />
    <glyph glyph-name="hbar" unicode="&#x127;" horiz-adv-x="1046" 
d="M559 1165q8 0 12 -3t2 -9l-6 -35q-2 -16 -43 -16h-201l-4 -404q0 -27 21 0q143 160 336 160q111 0 162 -67q55 -72 47 -263q-6 -158 0 -315q4 -117 25.5 -142.5t105.5 -33.5q20 -23 0 -47q-39 0 -98.5 5t-102.5 5q-41 0 -99.5 -5t-94.5 -5q-20 25 0 47q78 8 97 33.5
t23 142.5q6 162 0 322q-6 150 -28 192q-35 70 -105 70q-98 0 -254 -156q-33 -33 -32 -82q0 -244 4 -346q4 -119 22.5 -144.5t93.5 -31.5q8 -8 8.5 -22.5t-8.5 -24.5q-37 0 -91 5t-95 5q-45 0 -110.5 -5t-98.5 -5q-23 23 0 47q88 6 110.5 32.5t26.5 143.5q3 78 3.5 399.5
t-1.5 489.5h-135q-12 0 -10 12l4 23q4 29 45 28h95q0 2 -0.5 7t-0.5 8q-4 115 -22.5 135t-102.5 24q-18 18 -12 39q172 14 262 52q25 0 25 -19q-6 -145 -8 -184q-1 -25 -2 -62h235z" />
    <glyph glyph-name="Itilde" unicode="&#x128;" horiz-adv-x="620" 
d="M437 1573q35 0 55 21.5t41 84.5q32 3 56 -12q-19 -95 -64.5 -149t-114.5 -54q-13 0 -26 3.5t-27.5 12t-24.5 14.5t-27.5 18.5t-25.5 17.5q-64 39 -110 39q-38 0 -58 -22.5t-36 -76.5q-38 -7 -56 11q48 201 164 200q18 0 34 -3.5t34 -13t26.5 -15t29 -20t24.5 -17.5
q51 -39 106 -39zM393 223q2 -66 8.5 -100t29.5 -54t50.5 -25t88.5 -7q9 -9 9.5 -23.5t-9.5 -23.5q-140 10 -264 10q-67 0 -266 -10q-9 9 -9 23.5t9 23.5q61 3 89 7.5t51.5 24t30.5 54.5t8 100q6 254 6 434q0 184 -6 441q-1 44 -4 72t-13 49t-19 31.5t-34.5 17.5t-45 9.5
t-63.5 6.5q-9 9 -9 23.5t9 23.5q164 -10 265 -10q76 0 265 10q9 -9 9.5 -23.5t-9.5 -23.5q-63 -4 -89 -9t-49.5 -24.5t-30 -53t-8.5 -99.5q-6 -207 -6 -443q0 -178 6 -432z" />
    <glyph glyph-name="itilde" unicode="&#x129;" horiz-adv-x="546" 
d="M377 1120q31 0 49.5 22t37.5 85q29 3 49 -13q-17 -95 -57.5 -148.5t-102.5 -53.5q-12 0 -23.5 3.5t-25 11.5t-22 14t-24.5 18.5t-23 17.5q-57 39 -99 39q-34 0 -52.5 -22.5t-32.5 -75.5q-34 -7 -50 10q43 201 147 201q16 0 31 -4t30.5 -13.5t24 -15t26.5 -20t21 -17.5
q47 -39 96 -39zM360 223q4 -125 28 -152.5t120 -33.5q8 -8 8 -22.5t-8 -24.5q-154 10 -221 10q-90 0 -224 -10q-23 23 0 47q96 8 120 35.5t28 150.5q4 137 4 229q0 95 -4 177q-4 88 -25.5 109.5t-107.5 29.5q-8 25 -4 37q178 23 272 59q27 0 27 -14q-7 -111 -13 -212
q-4 -83 -4 -188q0 -114 4 -227z" />
    <glyph glyph-name="Imacron" unicode="&#x12a;" horiz-adv-x="620" 
d="M523 1427h-459q-13 0 -19.5 12t-6.5 25q0 20 14.5 43t30.5 23h461q14 0 21 -11.5t7 -23.5q0 -20 -15 -44t-34 -24zM393 223q2 -66 8.5 -100t29.5 -54t50.5 -25t88.5 -7q9 -9 9.5 -23.5t-9.5 -23.5q-140 10 -264 10q-67 0 -266 -10q-9 9 -9 23.5t9 23.5q61 3 89 7.5
t51.5 24t30.5 54.5t8 100q6 254 6 434q0 184 -6 441q-1 44 -4 72t-13 49t-19 31.5t-34.5 17.5t-45 9.5t-63.5 6.5q-9 9 -9 23.5t9 23.5q164 -10 265 -10q76 0 265 10q9 -9 9.5 -23.5t-9.5 -23.5q-63 -4 -89 -9t-49.5 -24.5t-30 -53t-8.5 -99.5q-6 -207 -6 -443
q0 -178 6 -432z" />
    <glyph glyph-name="imacron" unicode="&#x12b;" horiz-adv-x="546" 
d="M450 1044h-413q-11 0 -17 12t-6 25q0 20 13 43t27 23h415q12 0 19 -11.5t7 -23.5q0 -20 -14 -44t-31 -24zM360 223q4 -125 28 -152.5t120 -33.5q8 -8 8 -22.5t-8 -24.5q-154 10 -221 10q-90 0 -224 -10q-23 23 0 47q96 8 120 35.5t28 150.5q4 137 4 229q0 95 -4 177
q-4 88 -25.5 109.5t-107.5 29.5q-8 25 -4 37q178 23 272 59q27 0 27 -14q-7 -111 -13 -212q-4 -83 -4 -188q0 -114 4 -227z" />
    <glyph glyph-name="Ibreve" unicode="&#x12c;" horiz-adv-x="620" 
d="M584 1649q-9 -105 -90.5 -168.5t-187.5 -63.5q-114 0 -192.5 63t-86.5 169h58q12 -58 74.5 -91.5t146.5 -33.5q80 0 145.5 34t75.5 91h57zM393 223q2 -66 8.5 -100t29.5 -54t50.5 -25t88.5 -7q9 -9 9.5 -23.5t-9.5 -23.5q-140 10 -264 10q-67 0 -266 -10q-9 9 -9 23.5
t9 23.5q61 3 89 7.5t51.5 24t30.5 54.5t8 100q6 254 6 434q0 184 -6 441q-1 44 -4 72t-13 49t-19 31.5t-34.5 17.5t-45 9.5t-63.5 6.5q-9 9 -9 23.5t9 23.5q164 -10 265 -10q76 0 265 10q9 -9 9.5 -23.5t-9.5 -23.5q-63 -4 -89 -9t-49.5 -24.5t-30 -53t-8.5 -99.5
q-6 -207 -6 -443q0 -178 6 -432z" />
    <glyph glyph-name="ibreve" unicode="&#x12d;" horiz-adv-x="546" 
d="M58 1292q15 -82 70 -133t129 -51t129.5 49t69.5 135l50 -24q-16 -126 -89.5 -201.5t-159.5 -75.5q-97 0 -163.5 73.5t-85.5 203.5zM360 223q4 -125 28 -152.5t120 -33.5q8 -8 8 -22.5t-8 -24.5q-154 10 -221 10q-90 0 -224 -10q-23 23 0 47q96 8 120 35.5t28 150.5
q4 137 4 229q0 95 -4 177q-4 88 -25.5 109.5t-107.5 29.5q-8 25 -4 37q178 23 272 59q27 0 27 -14q-7 -111 -13 -212q-4 -83 -4 -188q0 -114 4 -227z" />
    <glyph glyph-name="Iogonek" unicode="&#x12e;" horiz-adv-x="620" 
d="M576 -276q-86 -133 -225 -134q-180 0 -180 152q0 67 53.5 142t141.5 115q-31 1 -60 1q-67 0 -266 -10q-9 9 -9 23.5t9 23.5q61 3 89 7.5t51.5 24t30.5 54.5t8 100q6 254 6 434q0 184 -6 441q-1 44 -4 72t-13 49t-19 31.5t-34.5 17.5t-45 9.5t-63.5 6.5q-9 9 -9 23.5
t9 23.5q164 -10 265 -10q76 0 265 10q9 -9 9.5 -23.5t-9.5 -23.5q-63 -4 -89 -9t-49.5 -24.5t-30 -53t-8.5 -99.5q-6 -207 -6 -443q0 -178 6 -432q2 -66 8.5 -100t29.5 -54t50.5 -25t88.5 -7q9 -9 9.5 -23.5t-9.5 -23.5q-9 1 -59 3q-90 -13 -151.5 -85.5t-61.5 -143.5
q0 -96 102 -96q28 0 53.5 11.5t40.5 24.5t43 42q26 1 39 -22z" />
    <glyph glyph-name="iogonek" unicode="&#x12f;" horiz-adv-x="546" 
d="M530 -276q-86 -133 -225 -134q-180 0 -180 152q0 68 54 143t142 115h-34q-90 0 -224 -10q-23 23 0 47q96 8 120 35.5t28 150.5q4 137 4 229q0 95 -4 177q-4 88 -25.5 109.5t-107.5 29.5q-8 25 -4 37q178 23 272 59q27 0 27 -14q-7 -111 -13 -212q-4 -83 -4 -188
q0 -114 4 -227q4 -125 28 -152.5t120 -33.5q8 -8 8 -22.5t-8 -24.5q-20 1 -48 3q-88 -15 -148 -87t-60 -142q0 -96 102 -96q41 0 69 18.5t69 59.5q26 1 38 -22zM164 1227q0 37 34.5 67.5t71.5 30.5q39 0 69 -34t30 -72q0 -35 -33 -67t-74 -32q-37 0 -67.5 34t-30.5 73z" />
    <glyph glyph-name="Idotaccent" unicode="&#x130;" horiz-adv-x="620" 
d="M193 1634q0 43 31.5 75t74.5 32t75 -32t32 -75t-32 -74.5t-75 -31.5t-74.5 31.5t-31.5 74.5zM393 223q2 -66 8.5 -100t29.5 -54t50.5 -25t88.5 -7q9 -9 9.5 -23.5t-9.5 -23.5q-140 10 -264 10q-67 0 -266 -10q-9 9 -9 23.5t9 23.5q61 3 89 7.5t51.5 24t30.5 54.5t8 100
q6 254 6 434q0 184 -6 441q-1 44 -4 72t-13 49t-19 31.5t-34.5 17.5t-45 9.5t-63.5 6.5q-9 9 -9 23.5t9 23.5q164 -10 265 -10q76 0 265 10q9 -9 9.5 -23.5t-9.5 -23.5q-63 -4 -89 -9t-49.5 -24.5t-30 -53t-8.5 -99.5q-6 -207 -6 -443q0 -178 6 -432z" />
    <glyph glyph-name="dotlessi" unicode="&#x131;" horiz-adv-x="546" 
d="M360 223q4 -125 28 -152.5t120 -33.5q8 -8 8 -22.5t-8 -24.5q-154 10 -221 10q-90 0 -224 -10q-23 23 0 47q96 8 120 35.5t28 150.5q4 137 4 229q0 99 -4 177q-4 88 -25.5 109.5t-107.5 29.5q-8 25 -4 37q178 23 272 59q27 0 27 -14q-7 -111 -13 -212q-4 -83 -4 -188
q0 -114 4 -227z" />
    <glyph glyph-name="IJ" unicode="&#x132;" horiz-adv-x="1290" 
d="M901 -33q6 319 6 690q0 184 -6 441q-2 123 -33.5 152.5t-144.5 33.5q-23 23 0 47q45 0 127 -5t137 -5q57 0 140 5t126 5q8 -8 8.5 -22.5t-8.5 -24.5q-113 -4 -143.5 -33.5t-34.5 -152.5q-6 -207 -6 -443q0 -451 3 -599q3 -167 -165 -310q-63 -54 -116.5 -74.5
t-129.5 -20.5q-48 0 -104 32.5t-56 87.5q0 34 30.5 54t59.5 20q24 0 42.5 -9t26 -17.5t18.5 -26.5t15 -24q29 -39 63 -38q43 0 93 65.5t52 171.5zM393 223q2 -66 8.5 -100t29.5 -54t50.5 -25t88.5 -7q9 -9 9.5 -23.5t-9.5 -23.5q-140 10 -264 10q-67 0 -266 -10
q-9 9 -9 23.5t9 23.5q61 3 89 7.5t51.5 24t30.5 54.5t8 100q6 254 6 434q0 184 -6 441q-1 44 -4 72t-13 49t-19 31.5t-34.5 17.5t-45 9.5t-63.5 6.5q-9 9 -9 23.5t9 23.5q164 -10 265 -10q76 0 265 10q9 -9 9.5 -23.5t-9.5 -23.5q-63 -4 -89 -9t-49.5 -24.5t-30 -53
t-8.5 -99.5q-6 -207 -6 -443q0 -178 6 -432z" />
    <glyph glyph-name="ij" unicode="&#x133;" horiz-adv-x="1110" 
d="M756 1227q0 37 34.5 67.5t71.5 30.5q39 0 69 -34t30 -72q0 -35 -33 -67t-74 -32q-37 0 -67.5 34t-30.5 73zM784 629q-4 86 -26.5 108.5t-106.5 30.5q-8 25 -4 37q195 25 281 59q27 0 26 -14q-6 -111 -8 -213q-5 -199 -5 -283q0 -71 3 -223q8 -430 -151 -559
q-84 -70 -226 -70q-37 0 -74.5 23.5t-37.5 64.5q0 25 22.5 41.5t42.5 16.5q10 0 20.5 -3t17.5 -6.5t16.5 -10.5t13.5 -10t12 -12t10 -12q23 -23 64 -22q96 0 111 489q1 27 1 41q4 116 4 260q0 155 -6 267zM164 1227q0 37 34.5 67.5t71.5 30.5q39 0 69 -34t30 -72
q0 -35 -33 -67t-74 -32q-37 0 -67.5 34t-30.5 73zM360 223q4 -125 28 -152.5t120 -33.5q8 -8 8 -22.5t-8 -24.5q-154 10 -221 10q-90 0 -224 -10q-23 23 0 47q96 8 120 35.5t28 150.5q4 137 4 229q0 95 -4 177q-4 88 -25.5 109.5t-107.5 29.5q-8 25 -4 37q178 23 272 59
q27 0 27 -14q-7 -111 -13 -212q-4 -83 -4 -188q0 -114 4 -227z" />
    <glyph glyph-name="Jcircumflex" unicode="&#x134;" horiz-adv-x="710" 
d="M463 1655q90 -109 211 -199q-10 -33 -33 -43q-133 61 -217 125q-96 -70 -219 -125q-23 14 -29 43q84 63 207 199q37 23 80 0zM330 -33q6 319 6 690q0 184 -6 441q-2 123 -34 152.5t-144 33.5q-8 10 -8.5 24.5t8.5 22.5q45 0 126.5 -5t137.5 -5q57 0 140 5t126 5
q23 -25 0 -47q-113 -4 -143.5 -33.5t-34.5 -152.5q-6 -207 -6 -443q0 -451 2 -599q3 -167 -164 -310q-63 -54 -116.5 -74.5t-129.5 -20.5q-48 0 -104 32.5t-56 87.5q0 34 30.5 54t59.5 20q24 0 42.5 -9t26 -17.5t18 -26.5t14.5 -24q29 -39 63 -38q43 0 93.5 65.5t52.5 171.5
z" />
    <glyph glyph-name="jcircumflex" unicode="&#x135;" horiz-adv-x="557" 
d="M231 629q-4 86 -26.5 108.5t-106.5 30.5q-8 25 -4 37q195 25 281 59q27 0 26 -14q-6 -111 -8 -213q-5 -199 -5 -283q0 -71 3 -223q8 -430 -151 -559q-84 -70 -226 -70q-37 0 -74.5 23.5t-37.5 64.5q0 25 22.5 41.5t42.5 16.5q10 0 20.5 -3t17.5 -6.5t16.5 -10.5t13.5 -10
t12 -12t10 -12q23 -23 64 -22q96 0 111 489q1 27 1 41q4 116 4 260q0 155 -6 267zM342 1294q76 -123 223 -286q-20 -29 -47 -35q-119 76 -211 170q-115 -115 -213 -170q-27 6 -45 35q156 172 227 286q35 8 66 0z" />
    <glyph glyph-name="Kcommaaccent" unicode="&#x136;" horiz-adv-x="1323" 
d="M641 -84q58 0 92.5 -48t34.5 -128q0 -87 -61 -137.5t-156 -65.5q-16 16 -17 49q71 16 112.5 47.5t41.5 61.5q0 28 -16 39t-48 14q-86 15 -86 80q0 37 29.5 62.5t73.5 25.5zM393 223q2 -123 34 -152.5t144 -33.5q23 -25 0 -47q-45 0 -127 5t-137 5q-57 0 -140 -5t-126 -5
q-8 10 -8 24.5t8 22.5q113 4 143.5 33.5t32.5 152.5q8 340 8 434q0 100 -8 441q-2 123 -32.5 152.5t-143.5 33.5q-8 10 -8 24.5t8 22.5q45 0 126 -5t136 -5q57 0 141 5t127 5q23 -25 0 -47q-113 -4 -144.5 -33.5t-33.5 -152.5q-6 -233 -6 -398q113 8 186 91l328 360
q45 45 34 73.5t-40 42t-72 17.5q-8 10 -8 24.5t8 22.5q45 0 122 -5t120 -5t106.5 5t108.5 5q23 -25 0 -47q-166 -20 -279 -141l-301 -309q-72 -74 -71 -101q0 -20 26 -51l449 -532q74 -92 201 -113q23 -25 0 -47q-45 0 -116 5t-112 5q-35 0 -59.5 -5t-38.5 -5q-10 0 -10 12
q-8 61 -74 148l-322 405q-68 84 -186 88q0 -174 6 -420z" />
    <glyph glyph-name="kcommaaccent" unicode="&#x137;" horiz-adv-x="1003" 
d="M545 -84q57 0 92 -48t35 -128q0 -86 -60.5 -137.5t-156.5 -65.5q-16 16 -17 49q72 16 113 47t41 62q0 47 -64 53q-86 14 -86 80q0 37 29 62.5t74 25.5zM166 211q6 211 5 516q0 335 -5 453q-4 106 -25.5 130.5t-99.5 28.5q-12 12 -6 39q172 14 262 52q27 0 27 -19
q-6 -57 -9 -184q-5 -254 -4 -553q0 -105 1 -217q33 4 83 21.5t80 39.5q74 55 156 160q12 14 16 39.5t-14.5 52.5t-67.5 31q-8 10 -8 24.5t8 22.5q31 0 91.5 -5t101.5 -5q37 0 87 5t83 5q23 -25 0 -47q-113 -12 -205 -111l-172 -176q-8 -8 -8 -20q0 -8 14 -27l258 -324
q74 -94 168 -106q8 -8 8 -22.5t-8 -24.5q-98 10 -162 10q-31 0 -108 -10q-4 0 -8 10q-18 68 -76 143l-142 191q-33 45 -67.5 60t-107.5 16q2 -130 3 -199q2 -117 26 -143.5t116 -30.5q23 -23 0 -47q-37 0 -104.5 5t-112.5 5t-113 -5t-102 -5q-8 8 -9.5 22.5t9.5 24.5
q92 4 115.5 30.5t25.5 143.5z" />
    <glyph glyph-name="kgreenlandic" unicode="&#x138;" horiz-adv-x="1062" 
d="M360 223q2 -125 27 -152.5t121 -33.5q8 -8 8 -22.5t-8 -24.5q-39 0 -106.5 5t-114.5 5t-117 -5t-107 -5q-23 23 0 47q96 8 120 35.5t28 150.5q4 137 4 229q0 54 -4 177q-2 88 -24.5 109.5t-108.5 29.5q-8 25 -4 37q178 23 272 59q27 0 27 -14q-7 -111 -13 -212
q-4 -85 -4 -180q66 11 136 59q74 52 163 160q9 11 16.5 28.5t10.5 39t-15.5 38t-58.5 19.5q-9 9 -9 23t9 23q32 -1 95 -5.5t106 -4.5q40 0 92 4.5t86 5.5q9 -9 9 -23.5t-9 -22.5q-117 -11 -215 -111l-180 -178q-8 -8 -8 -19q0 -10 14 -27l270 -324q80 -96 176 -107
q21 -20 0 -40q-117 4 -167 4q-49 0 -127 -4q-5 0 -9 10q-12 41 -86 137l-149 191q-33 41 -66 63q-26 9 -83 11q0 -65 3 -185z" />
    <glyph glyph-name="Lacute" unicode="&#x139;" horiz-adv-x="1048" 
d="M526 1677q88 -41 126 -106l-294 -119q-57 -25 -86 -25q-13 0 -22 9.5t-9 21.5q0 22 31 43zM392 223q3 -164 117 -164h149q150 0 224.5 70.5t109.5 198.5q20 3 47 -11q-17 -145 -53 -327q-189 10 -244 10h-436q-31 0 -123.5 -4.5t-142.5 -5.5q-9 9 -9 23.5t9 23.5
q61 3 89 7.5t51 24t30 54.5t8 100q6 255 6 434q0 185 -6 441q-2 66 -8.5 100.5t-29.5 54t-51 24t-89 7.5q-9 9 -9 23.5t9 23.5q44 -1 126 -5.5t138 -4.5q57 0 140.5 4.5t125.5 5.5q9 -9 9.5 -23.5t-9.5 -23.5q-61 -3 -88.5 -7.5t-50.5 -24.5t-30 -54t-9 -100
q-6 -206 -6 -443q0 -42 6 -432z" />
    <glyph glyph-name="lacute" unicode="&#x13a;" horiz-adv-x="518" 
d="M190 211q6 211 6 516q0 335 -6 453q-4 106 -25.5 130.5t-98.5 28.5q-12 12 -7 39q172 14 263 52q27 0 26 -19q-6 -57 -8 -184q-5 -254 -5 -553q0 -267 5 -463q2 -117 25.5 -143.5t115.5 -30.5q23 -23 0 -47q-37 0 -104.5 5t-112.5 5t-112.5 -5t-102.5 -5q-8 8 -9 22.5
t9 24.5q92 4 115.5 30.5t25.5 143.5zM416 1735q88 -41 127 -107l-295 -119q-57 -25 -86 -24q-31 0 -31 31q0 23 31 43z" />
    <glyph glyph-name="Lcommaaccent" unicode="&#x13b;" horiz-adv-x="1048" 
d="M556 -84q58 0 92.5 -48t34.5 -128q0 -87 -60.5 -137.5t-156.5 -65.5q-16 16 -16 49q71 16 112 47.5t41 61.5q0 28 -15.5 39t-47.5 14q-86 15 -86 80q0 37 29 62.5t73 25.5zM392 223q3 -164 117 -164h149q150 0 224.5 70.5t109.5 198.5q20 3 47 -11q-17 -145 -53 -327
q-189 10 -244 10h-436q-31 0 -123.5 -4.5t-142.5 -5.5q-9 9 -9 23.5t9 23.5q61 3 89 7.5t51 24t30 54.5t8 100q6 255 6 434q0 185 -6 441q-2 66 -8.5 100.5t-29.5 54t-51 24t-89 7.5q-9 9 -9 23.5t9 23.5q44 -1 126 -5.5t138 -4.5q57 0 140.5 4.5t125.5 5.5q9 -9 9.5 -23.5
t-9.5 -23.5q-61 -3 -88.5 -7.5t-50.5 -24.5t-30 -54t-9 -100q-6 -206 -6 -443q0 -42 6 -432z" />
    <glyph glyph-name="lcommaaccent" unicode="&#x13c;" horiz-adv-x="518" 
d="M190 211q6 211 6 516q0 335 -6 453q-4 106 -25.5 130.5t-98.5 28.5q-12 12 -7 39q172 14 263 52q27 0 26 -19q-6 -57 -8 -184q-5 -254 -5 -553q0 -267 5 -463q2 -117 25.5 -143.5t115.5 -30.5q23 -23 0 -47q-37 0 -104.5 5t-112.5 5t-112.5 -5t-102.5 -5q-8 8 -9 22.5
t9 24.5q92 4 115.5 30.5t25.5 143.5zM270 -84q57 0 92 -48t35 -128q0 -86 -60.5 -137.5t-156.5 -65.5q-16 16 -16 49q72 16 112.5 47t40.5 62q0 47 -63 53q-86 14 -86 80q0 37 28.5 62.5t73.5 25.5z" />
    <glyph glyph-name="Lcaron" unicode="&#x13d;" horiz-adv-x="1048" 
d="M767 1430q56 0 89.5 -45.5t33.5 -104.5q0 -66 -55.5 -136t-153.5 -81l-10 35q59 13 94 56.5t35 84.5q0 43 -29 43q-94 0 -94 78q0 27 23.5 48.5t66.5 21.5zM392 223q3 -164 117 -164h149q150 0 224.5 70.5t109.5 198.5q20 3 47 -11q-17 -145 -53 -327q-189 10 -244 10
h-436q-31 0 -123.5 -4.5t-142.5 -5.5q-9 9 -9 23.5t9 23.5q61 3 89 7.5t51 24t30 54.5t8 100q6 255 6 434q0 185 -6 441q-2 66 -8.5 100.5t-29.5 54t-51 24t-89 7.5q-9 9 -9 23.5t9 23.5q44 -1 126 -5.5t138 -4.5q57 0 140.5 4.5t125.5 5.5q9 -9 9.5 -23.5t-9.5 -23.5
q-61 -3 -88.5 -7.5t-50.5 -24.5t-30 -54t-9 -100q-6 -206 -6 -443q0 -42 6 -432z" />
    <glyph glyph-name="lcaron" unicode="&#x13e;" horiz-adv-x="593" 
d="M543 1430q55 0 89 -45.5t34 -104.5q0 -66 -55.5 -136.5t-153.5 -80.5l-11 35q59 12 94 56t35 85q0 43 -28 43q-94 0 -94 78q0 27 23.5 48.5t66.5 21.5zM190 211q6 211 6 516q0 335 -6 453q-4 106 -25.5 130.5t-98.5 28.5q-12 12 -7 39q172 14 263 52q27 0 26 -19
q-6 -57 -8 -184q-5 -254 -5 -553q0 -267 5 -463q2 -117 25.5 -143.5t115.5 -30.5q23 -23 0 -47q-37 0 -104.5 5t-112.5 5t-112.5 -5t-102.5 -5q-8 8 -9 22.5t9 24.5q92 4 115.5 30.5t25.5 143.5z" />
    <glyph glyph-name="Ldot" unicode="&#x13f;" horiz-adv-x="1048" 
d="M581 1010q0 43 31.5 74.5t74.5 31.5t75 -31.5t32 -74.5t-32 -75t-75 -32t-74.5 32t-31.5 75zM392 223q3 -164 117 -164h149q150 0 224.5 70.5t109.5 198.5q20 3 47 -11q-17 -145 -53 -327q-189 10 -244 10h-436q-31 0 -123.5 -4.5t-142.5 -5.5q-9 9 -9 23.5t9 23.5
q61 3 89 7.5t51 24t30 54.5t8 100q6 255 6 434q0 185 -6 441q-2 66 -8.5 100.5t-29.5 54t-51 24t-89 7.5q-9 9 -9 23.5t9 23.5q44 -1 126 -5.5t138 -4.5q57 0 140.5 4.5t125.5 5.5q9 -9 9.5 -23.5t-9.5 -23.5q-61 -3 -88.5 -7.5t-50.5 -24.5t-30 -54t-9 -100
q-6 -206 -6 -443q0 -42 6 -432z" />
    <glyph glyph-name="ldot" unicode="&#x140;" horiz-adv-x="518" 
d="M436 737q0 39 29 70t70 31q37 0 66.5 -30t29.5 -71q0 -39 -28 -67.5t-68 -28.5q-45 0 -72 28.5t-27 67.5zM190 211q6 211 6 516q0 335 -6 453q-4 106 -25.5 130.5t-98.5 28.5q-12 12 -7 39q172 14 263 52q27 0 26 -19q-6 -57 -8 -184q-5 -254 -5 -553q0 -267 5 -463
q2 -117 25.5 -143.5t115.5 -30.5q23 -23 0 -47q-37 0 -104.5 5t-112.5 5t-112.5 -5t-102.5 -5q-8 8 -9 22.5t9 24.5q92 4 115.5 30.5t25.5 143.5z" />
    <glyph glyph-name="Lslash" unicode="&#x141;" horiz-adv-x="1048" 
d="M644 899l37 -61l-295 -170v-13q0 -42 6 -432q3 -164 117 -164h149q150 0 224.5 70.5t109.5 198.5q20 3 47 -11q-17 -145 -53 -327q-189 10 -244 10h-436q-31 0 -123.5 -4.5t-142.5 -5.5q-9 9 -9 23.5t9 23.5q61 3 89 7.5t51 24t30 54.5t8 100q5 212 6 352l-167 -96
l-37 64l204 116q0 184 -6 439q-2 66 -8.5 100.5t-29.5 54t-51 24t-89 7.5q-9 9 -9 23.5t9 23.5q44 -1 126 -5.5t138 -4.5q57 0 140.5 4.5t125.5 5.5q9 -9 9.5 -23.5t-9.5 -23.5q-61 -3 -88.5 -7.5t-50.5 -24.5t-30 -54t-9 -100q-5 -179 -6 -346z" />
    <glyph glyph-name="lslash" unicode="&#x142;" horiz-adv-x="518" 
d="M498 897l34 -61l-197 -115v-47q0 -267 5 -463q2 -117 25.5 -143.5t115.5 -30.5q23 -23 0 -47q-37 0 -104.5 5t-112.5 5t-112.5 -5t-102.5 -5q-8 8 -9 22.5t9 24.5q92 4 115.5 30.5t25.5 143.5q4 166 6 429l-149 -87l-35 59l184 108v7q0 335 -6 453q-4 106 -25.5 130.5
t-98.5 28.5q-12 12 -7 39q172 14 263 52q27 0 26 -19q-6 -57 -8 -184q-3 -168 -5 -425z" />
    <glyph glyph-name="Nacute" unicode="&#x143;" horiz-adv-x="1427" 
d="M868 1679q88 -41 127 -106l-295 -119q-57 -25 -86 -24q-31 0 -30 30q0 23 30 43zM1136 1075q0 71 -6.5 109.5t-31 60t-51.5 27.5t-90 12q-9 9 -9 23.5t9 23.5q49 -1 112 -5.5t108 -4.5t109 4.5t112 5.5q9 -9 9 -23.5t-9 -23.5q-61 -6 -89.5 -13t-52.5 -28.5t-30 -59.5
t-6 -108l-2 -1032v-12.5v-11.5t-0.5 -10t-1 -9t-1.5 -7t-3 -6t-4.5 -4t-6 -2.5t-8.5 -0.5q-46 0 -82 49l-715 903q-52 68 -69 67q-27 0 -27 -100l2 -653q0 -71 6 -109.5t30.5 -60t51.5 -27.5t90 -12q9 -9 9 -23.5t-9 -23.5q-49 1 -112 5.5t-107 4.5q-45 0 -109 -4.5
t-112 -5.5q-9 9 -9 23.5t9 23.5q61 6 89.5 13t52 28.5t30 59.5t6.5 108l2 880q-40 143 -172 152q-9 9 -9 23.5t9 23.5l264 -4l703 -905q14 -18 31 -40.5t25 -33t17 -21t14.5 -14.5t10.5 -4q25 0 25 62z" />
    <glyph glyph-name="nacute" unicode="&#x144;" horiz-adv-x="1075" 
d="M643 1268q12 4 29 4q63 0 112 -47l7 -23l-236 -223q-39 -39 -61 -39q-10 0 -19.5 8t-9.5 19q0 20 23 57zM358 698q143 160 342 160q115 0 166 -67q39 -54 40 -174q0 -27 -3 -89q-6 -158 0 -315q4 -117 25.5 -142.5t105.5 -33.5q20 -23 0 -47q-39 0 -98 5t-102 5
q-41 0 -100.5 -5t-96.5 -5q-20 25 0 47q78 8 97.5 33.5t23.5 142.5q6 172 0 342q-4 123 -21 152q-35 70 -104 69q-59 0 -132 -31.5t-126 -82.5q-31 -35 -33 -82q-6 -123 0 -367q2 -117 20.5 -142.5t96.5 -33.5q8 -8 8 -22.5t-8 -24.5q-37 0 -91.5 5t-95.5 5q-47 0 -112.5 -5
t-98.5 -5q-8 10 -8 24.5t8 22.5q90 8 113 33.5t25 142.5q6 248 0 426q-2 84 -24.5 104.5t-102.5 28.5q-8 23 -4 35q172 23 258 55q25 0 24 -14q-10 -90 -10 -150q0 -25 18 0z" />
    <glyph glyph-name="Ncommaaccent" unicode="&#x145;" horiz-adv-x="1427" 
d="M715 -84q57 0 92 -48t35 -128q0 -86 -60.5 -137.5t-156.5 -65.5q-16 16 -17 49q72 16 113 47t41 62q0 47 -64 53q-86 14 -86 80q0 37 29 62.5t74 25.5zM1136 1075q0 71 -6.5 109.5t-31 60t-51.5 27.5t-90 12q-9 9 -9 23.5t9 23.5q49 -1 112 -5.5t108 -4.5t109 4.5
t112 5.5q9 -9 9 -23.5t-9 -23.5q-61 -6 -89.5 -13t-52.5 -28.5t-30 -59.5t-6 -108l-2 -1032v-12.5v-11.5t-0.5 -10t-1 -9t-1.5 -7t-3 -6t-4.5 -4t-6 -2.5t-8.5 -0.5q-46 0 -82 49l-715 903q-52 68 -69 67q-27 0 -27 -100l2 -653q0 -71 6 -109.5t30.5 -60t51.5 -27.5t90 -12
q9 -9 9 -23.5t-9 -23.5q-49 1 -112 5.5t-107 4.5q-45 0 -109 -4.5t-112 -5.5q-9 9 -9 23.5t9 23.5q61 6 89.5 13t52 28.5t30 59.5t6.5 108l2 880q-40 143 -172 152q-9 9 -9 23.5t9 23.5l264 -4l703 -905q14 -18 31 -40.5t25 -33t17 -21t14.5 -14.5t10.5 -4q25 0 25 62z" />
    <glyph glyph-name="ncommaaccent" unicode="&#x146;" horiz-adv-x="1075" 
d="M535 -84q57 0 92 -48t35 -128q0 -86 -60.5 -137.5t-157.5 -65.5q-16 16 -16 49q72 16 113 47t41 62q0 47 -64 53q-86 14 -86 80q0 37 29 62.5t74 25.5zM358 698q143 160 342 160q115 0 166 -67q39 -54 40 -174q0 -27 -3 -89q-6 -158 0 -315q4 -117 25.5 -142.5
t105.5 -33.5q20 -23 0 -47q-39 0 -98 5t-102 5q-41 0 -100.5 -5t-96.5 -5q-20 25 0 47q78 8 97.5 33.5t23.5 142.5q6 172 0 342q-4 123 -21 152q-35 70 -104 69q-59 0 -132 -31.5t-126 -82.5q-31 -35 -33 -82q-6 -123 0 -367q2 -117 20.5 -142.5t96.5 -33.5q8 -8 8 -22.5
t-8 -24.5q-37 0 -91.5 5t-95.5 5q-47 0 -112.5 -5t-98.5 -5q-8 10 -8 24.5t8 22.5q90 8 113 33.5t25 142.5q6 248 0 426q-2 84 -24.5 104.5t-102.5 28.5q-8 23 -4 35q172 23 258 55q25 0 24 -14q-10 -90 -10 -150q0 -25 18 0z" />
    <glyph glyph-name="Ncaron" unicode="&#x147;" horiz-adv-x="1427" 
d="M680 1427q-74 92 -207 195l33 41q123 -53 217 -125q117 82 219 125l31 -41q-102 -78 -205 -195h-88zM1136 1075q0 71 -6.5 109.5t-31 60t-51.5 27.5t-90 12q-9 9 -9 23.5t9 23.5q49 -1 112 -5.5t108 -4.5t109 4.5t112 5.5q9 -9 9 -23.5t-9 -23.5q-61 -6 -89.5 -13
t-52.5 -28.5t-30 -59.5t-6 -108l-2 -1032v-12.5v-11.5t-0.5 -10t-1 -9t-1.5 -7t-3 -6t-4.5 -4t-6 -2.5t-8.5 -0.5q-46 0 -82 49l-715 903q-52 68 -69 67q-27 0 -27 -100l2 -653q0 -71 6 -109.5t30.5 -60t51.5 -27.5t90 -12q9 -9 9 -23.5t-9 -23.5q-49 1 -112 5.5t-107 4.5
q-45 0 -109 -4.5t-112 -5.5q-9 9 -9 23.5t9 23.5q61 6 89.5 13t52 28.5t30 59.5t6.5 108l2 880q-40 143 -172 152q-9 9 -9 23.5t9 23.5l264 -4l703 -905q14 -18 31 -40.5t25 -33t17 -21t14.5 -14.5t10.5 -4q25 0 25 62z" />
    <glyph glyph-name="ncaron" unicode="&#x148;" horiz-adv-x="1075" 
d="M504 1024q-78 127 -207 266l41 27q145 -106 217 -184q78 80 221 184l39 -27q-137 -154 -209 -266h-102zM358 698q143 160 342 160q115 0 166 -67q39 -54 40 -174q0 -27 -3 -89q-6 -158 0 -315q4 -117 25.5 -142.5t105.5 -33.5q20 -23 0 -47q-39 0 -98 5t-102 5
q-41 0 -100.5 -5t-96.5 -5q-20 25 0 47q78 8 97.5 33.5t23.5 142.5q6 172 0 342q-4 123 -21 152q-35 70 -104 69q-59 0 -132 -31.5t-126 -82.5q-31 -35 -33 -82q-6 -123 0 -367q2 -117 20.5 -142.5t96.5 -33.5q8 -8 8 -22.5t-8 -24.5q-37 0 -91.5 5t-95.5 5q-47 0 -112.5 -5
t-98.5 -5q-8 10 -8 24.5t8 22.5q90 8 113 33.5t25 142.5q6 248 0 426q-2 84 -24.5 104.5t-102.5 28.5q-8 23 -4 35q172 23 258 55q25 0 24 -14q-10 -90 -10 -150q0 -25 18 0z" />
    <glyph glyph-name="napostrophe" unicode="&#x149;" horiz-adv-x="1075" 
d="M147 1430q55 0 89 -45.5t34 -104.5q0 -66 -55 -136.5t-154 -80.5l-10 35q59 12 94 56t35 85q0 43 -28 43q-94 0 -95 78q0 27 23.5 48.5t66.5 21.5zM385 698q143 160 342 160q115 0 166 -67q39 -54 39 -174q0 -27 -2 -89q-6 -158 0 -315q4 -117 25.5 -142.5t105.5 -33.5
q20 -23 0 -47q-39 0 -98.5 5t-102.5 5q-41 0 -100.5 -5t-95.5 -5q-20 25 0 47q78 8 97 33.5t23 142.5q6 172 0 342q-4 123 -20 152q-35 70 -105 69q-59 0 -131.5 -31.5t-126.5 -82.5q-31 -35 -32 -82q-6 -123 0 -367q2 -117 20.5 -142.5t95.5 -33.5q23 -25 0 -47
q-37 0 -91 5t-95 5q-47 0 -112.5 -5t-98.5 -5q-23 23 0 47q90 8 112.5 33.5t24.5 142.5q6 248 0 426q-2 84 -24.5 104.5t-102.5 28.5q-8 23 -4 35q172 23 258 55q25 0 25 -14q-10 -90 -10 -150q0 -25 18 0z" />
    <glyph glyph-name="Eng" unicode="&#x14a;" horiz-adv-x="1484" 
d="M371 1329q14 0 21 -7t7 -17q-8 -55 -8 -189v-64q3 0 7.5 3.5t7.5 7.5l4 4q199 281 434 281q184 0 291 -125q131 -154 131 -549v-443q0 -135 -40 -242.5t-80 -154.5t-99 -98q-104 -88 -240 -88q-45 0 -99.5 30.5t-54.5 79.5q0 31 32 49.5t58 18.5q23 0 39.5 -8t23.5 -16.5
t16 -24t14 -21.5q27 -37 71 -37q41 0 79 32t73 138.5t35 276.5v549q0 297 -99 438q-70 100 -225 100q-121 0 -342 -262q-30 -36 -37 -77v-691q0 -123 32 -152.5t146 -33.5q8 -8 8.5 -22.5t-8.5 -24.5q-45 0 -123.5 5t-134.5 5q-57 0 -137 -5t-123 -5q-23 23 0 47
q115 4 146.5 33.5t31.5 152.5v875q0 123 -31.5 152.5t-146.5 33.5q-23 23 0 47q45 0 121 -5t131 -5q16 0 42 4z" />
    <glyph glyph-name="eng" unicode="&#x14b;" horiz-adv-x="1060" 
d="M756 148v387q0 103 -25 150q-39 70 -108 71q-126 0 -250 -116q-35 -37 -35 -82v-320q0 -82 10.5 -116.5t32 -45t80.5 -15.5q9 -9 9 -32.5t-9 -32.5q-163 4 -193 4q-56 0 -215 -4q-9 9 -9 32.5t9 32.5q53 4 75.5 8.5t41.5 23.5t23 50.5t4 94.5v381q0 82 -23.5 103.5
t-110.5 29.5q-12 33 -4 55q167 21 263 56q25 0 24 -16q-10 -90 -10 -148q0 -26 20 0q149 158 336 158q96 0 150 -66q55 -71 55 -262v-314q0 -273 -30 -400.5t-103 -183.5q-83 -66 -225 -66q-36 0 -74.5 22.5t-38.5 61.5q0 25 23.5 49.5t42.5 24.5q11 0 21 -3t17 -6t16 -9.5
t13 -10.5l12 -12t11 -10q22 -22 63 -22q25 0 44 18t30.5 55t19 78.5t11 104t5 115.5t1.5 127z" />
    <glyph glyph-name="Omacron" unicode="&#x14c;" horiz-adv-x="1423" 
d="M933 1509h-459q-13 0 -20 12t-7 25q0 20 15 43t31 23h460q14 0 21.5 -11.5t7.5 -23.5q0 -20 -15 -44t-34 -24zM670 1298q-158 0 -285 -164.5t-127 -463.5q0 -283 147.5 -462t344.5 -179q178 0 296.5 168t118.5 438q0 301 -143 482t-352 181zM1350 674q0 -262 -123 -436
q-86 -123 -218.5 -190.5t-299.5 -67.5q-268 0 -451.5 180t-183.5 475q0 276 136 463q86 118 211.5 184t274.5 66q283 0 468.5 -182.5t185.5 -491.5z" />
    <glyph glyph-name="omacron" unicode="&#x14d;" horiz-adv-x="987" 
d="M696 1044h-458q-27 0 -27 37q0 20 14.5 43t30.5 23h461q29 0 28 -35q0 -20 -15.5 -44t-33.5 -24zM82 399q0 195 108 322q117 137 306 137q141 0 237 -69.5t134 -165t38 -205.5q0 -203 -127 -328q-115 -111 -286 -110q-195 0 -302.5 126.5t-107.5 292.5zM467 811
q-121 0 -175 -108.5t-54 -258.5q0 -84 26.5 -175t94 -166.5t161.5 -75.5q84 0 157 81.5t73 247.5q0 209 -78 332t-205 123z" />
    <glyph glyph-name="Obreve" unicode="&#x14e;" horiz-adv-x="1423" 
d="M957 1649q-9 -105 -90.5 -168.5t-187.5 -63.5q-114 0 -192.5 63t-86.5 169h58q12 -58 74 -91.5t147 -33.5q80 0 145.5 34t75.5 91h57zM670 1298q-158 0 -285 -164.5t-127 -463.5q0 -283 147.5 -462t344.5 -179q178 0 296.5 168t118.5 438q0 301 -143 482t-352 181z
M1350 674q0 -262 -123 -436q-86 -123 -218.5 -190.5t-299.5 -67.5q-268 0 -451.5 180t-183.5 475q0 276 136 463q86 118 211.5 184t274.5 66q283 0 468.5 -182.5t185.5 -491.5z" />
    <glyph glyph-name="obreve" unicode="&#x14f;" horiz-adv-x="987" 
d="M268 1282q16 -82 78 -133t143.5 -51t144 49t77.5 135l55 -25q-18 -127 -99 -201.5t-178 -74.5q-109 0 -182.5 72.5t-93.5 203.5zM82 399q0 195 108 322q117 137 306 137q141 0 237 -69.5t134 -165t38 -205.5q0 -203 -127 -328q-115 -111 -286 -110q-195 0 -302.5 126.5
t-107.5 292.5zM467 811q-121 0 -175 -108.5t-54 -258.5q0 -84 26.5 -175t94 -166.5t161.5 -75.5q84 0 157 81.5t73 247.5q0 209 -78 332t-205 123z" />
    <glyph glyph-name="Ohungarumlaut" unicode="&#x150;" horiz-adv-x="1423" 
d="M943 1622q0 -27 -14 -41l-203 -172q-6 -6 -16 -6q-9 0 -18 7.5t-9 19.5q0 9 8 22l121 223q15 25 47 25q41 0 62.5 -24.5t21.5 -53.5zM675 1632q0 -27 -15 -39l-180 -165q-17 -15 -28 -15t-19 7t-8 18q0 12 5 22l112 226q15 25 55 24q27 0 52.5 -22.5t25.5 -55.5z
M670 1298q-158 0 -285 -164.5t-127 -463.5q0 -283 147.5 -462t344.5 -179q178 0 296.5 168t118.5 438q0 301 -143 482t-352 181zM1350 674q0 -262 -123 -436q-86 -123 -218.5 -190.5t-299.5 -67.5q-268 0 -451.5 180t-183.5 475q0 276 136 463q86 118 211.5 184t274.5 66
q283 0 468.5 -182.5t185.5 -491.5z" />
    <glyph glyph-name="ohungarumlaut" unicode="&#x151;" horiz-adv-x="987" 
d="M813 1251q0 -25 -14 -39l-234 -225q-4 -4 -12 -4t-18.5 8t-10.5 19q0 6 2 8l160 285q14 25 49 24q31 0 54.5 -23.5t23.5 -52.5zM543 1264q0 -20 -11 -33l-208 -248q-6 -6 -17 -6q-29 0 -28 27q0 4 2 6l131 299q12 29 53 28q33 0 55.5 -21t22.5 -52zM82 399q0 195 108 322
q117 137 306 137q141 0 237 -69.5t134 -165t38 -205.5q0 -203 -127 -328q-115 -111 -286 -110q-195 0 -302.5 126.5t-107.5 292.5zM467 811q-121 0 -175 -108.5t-54 -258.5q0 -84 26.5 -175t94 -166.5t161.5 -75.5q84 0 157 81.5t73 247.5q0 209 -78 332t-205 123z" />
    <glyph glyph-name="OE" unicode="&#x152;" horiz-adv-x="1802" 
d="M709 45q44 0 66 4t43 21t29 53.5t10 99.5q4 135 4 434q0 307 -4 441q-2 64 -10.5 98.5t-35.5 51.5t-55 20.5t-92 3.5q-170 0 -297 -149.5t-127 -452.5q0 -295 145.5 -460t323.5 -165zM713 -4q-287 0 -470.5 187.5t-183.5 467.5q0 285 176.5 482.5t454.5 197.5
q31 0 127 -5t126 -5h563q22 0 38 2t34.5 6.5t28.5 5.5q8 0 8 -6q16 -63 45 -303q-27 -13 -47 -10q-18 57 -27 82t-29.5 65t-41 57t-55 31.5t-79.5 14.5h-276q-35 0 -53.5 -25.5t-20.5 -64.5l-4 -447l197 2q67 0 101.5 4.5t54 23t23.5 39.5t7 70q9 9 23.5 9.5t23.5 -9.5
q-1 -24 -5.5 -80.5t-4.5 -95.5q0 -33 4.5 -79.5t5.5 -80.5q-9 -9 -23.5 -9t-23.5 9q-3 42 -7.5 62t-22.5 40.5t-55 28t-101 7.5l-197 2q-2 -360 4 -531q3 -88 74 -88h278q186 0 269 295q23 3 27.5 2t23.5 -12q-28 -176 -76 -348q-164 10 -262 10h-420q-30 0 -115.5 -2
t-116.5 -2z" />
    <glyph glyph-name="oe" unicode="&#x153;" horiz-adv-x="1593" 
d="M838 715q55 82 142 133t187 51q176 0 263.5 -102.5t87.5 -288.5h-594q-2 -18 -2 -62q0 -96 30.5 -171.5t75.5 -116.5t88 -61.5t76 -20.5q66 0 143.5 27.5t122.5 74.5q27 -2 45 -31q-123 -168 -334 -167q-236 0 -344 182q-121 -182 -336 -182q-186 0 -302.5 125.5
t-116.5 316.5q0 229 122.5 353t305.5 124q141 0 214 -48t126 -136zM246 485q0 -184 68.5 -309t203.5 -125q92 0 163 82t71 277q0 211 -84 316t-172 105q-98 0 -157.5 -60t-76 -131t-16.5 -155zM1341 588q-6 242 -178 241q-80 0 -137 -57t-74.5 -105.5t-21.5 -78.5h411z" />
    <glyph glyph-name="Racute" unicode="&#x154;" horiz-adv-x="1280" 
d="M621 1679q88 -41 127 -106l-295 -119q-57 -25 -86 -24q-31 0 -31 30q0 23 31 43zM383 600q0 -119 4 -426q2 -84 42 -107.5t157 -29.5q8 -8 8 -22.5t-8 -24.5q-41 0 -128 5t-151 5q-57 0 -140 -5t-126 -5q-8 10 -8 24.5t8 22.5q115 4 144.5 30.5t31.5 143.5q4 309 4 446
q0 100 -4 441q-2 123 -32.5 152.5t-143.5 33.5q-8 10 -8 24.5t8 22.5q45 0 126 -5t136 -5q45 0 150.5 10t128.5 10q133 0 229 -35.5t141 -93t64.5 -110.5t19.5 -107q0 -113 -60.5 -215t-191.5 -153l256 -447q96 -158 224 -157q8 -16 2 -29q-29 -14 -107 -14q-164 0 -276 182
l-219 356q-18 31 -26.5 41t-28 19.5t-52.5 9.5q-135 0 -174 12zM387 1194q-4 -340 -4 -537v-10q45 -10 162 -10q311 0 311 321q0 180 -82 257t-205 77q-104 0 -142 -24.5t-40 -73.5z" />
    <glyph glyph-name="racute" unicode="&#x155;" horiz-adv-x="731" 
d="M494 1268q12 4 28 4q63 0 113 -47l6 -23l-235 -223q-39 -39 -62 -39q-10 0 -19.5 8t-9.5 19q0 20 24 57zM207 639q-2 80 -24.5 102.5t-102.5 30.5q-10 16 -4 35q145 20 241 55q20 0 25 -12q6 -18 6 -137q0 -27 9 -26q3 1 8 7q109 164 217 164q63 0 90.5 -28.5t27.5 -65.5
t-27.5 -63.5t-64.5 -26.5q-47 0 -82 63q-10 18 -38.5 18.5t-90.5 -104.5q-43 -74 -47 -141q-6 -127 0 -297q2 -63 6 -94t25.5 -49.5t44.5 -22.5t84 -10q23 -25 0 -47q-168 10 -231 10q-61 0 -216 -10q-23 23 0 47q94 8 117 33.5t27 142.5q8 211 0 426z" />
    <glyph glyph-name="Rcommaaccent" unicode="&#x156;" horiz-adv-x="1280" 
d="M616 -84q57 0 92 -48t35 -128q0 -86 -60 -137.5t-157 -65.5q-16 16 -16 49q72 16 113 47t41 62q0 47 -64 53q-86 14 -86 80q0 37 28.5 62.5t73.5 25.5zM383 600q0 -119 4 -426q2 -84 42 -107.5t157 -29.5q8 -8 8 -22.5t-8 -24.5q-41 0 -128 5t-151 5q-57 0 -140 -5
t-126 -5q-8 10 -8 24.5t8 22.5q115 4 144.5 30.5t31.5 143.5q4 309 4 446q0 100 -4 441q-2 123 -32.5 152.5t-143.5 33.5q-8 10 -8 24.5t8 22.5q45 0 126 -5t136 -5q45 0 150.5 10t128.5 10q133 0 229 -35.5t141 -93t64.5 -110.5t19.5 -107q0 -113 -60.5 -215t-191.5 -153
l256 -447q96 -158 224 -157q8 -16 2 -29q-29 -14 -107 -14q-164 0 -276 182l-219 356q-18 31 -26.5 41t-28 19.5t-52.5 9.5q-135 0 -174 12zM387 1194q-4 -340 -4 -537v-10q45 -10 162 -10q311 0 311 321q0 180 -82 257t-205 77q-104 0 -142 -24.5t-40 -73.5z" />
    <glyph glyph-name="rcommaaccent" unicode="&#x157;" horiz-adv-x="731" 
d="M281 -84q57 0 92 -48t35 -128q0 -86 -60.5 -137.5t-157.5 -65.5q-16 16 -16 49q72 16 113 47t41 62q0 47 -64 53q-86 14 -86 80q0 37 29 62.5t74 25.5zM207 639q-2 80 -24.5 102.5t-102.5 30.5q-10 16 -4 35q145 20 241 55q20 0 25 -12q6 -18 6 -137q0 -27 9 -26q3 1 8 7
q109 164 217 164q63 0 90.5 -28.5t27.5 -65.5t-27.5 -63.5t-64.5 -26.5q-47 0 -82 63q-10 18 -38.5 18.5t-90.5 -104.5q-43 -74 -47 -141q-6 -127 0 -297q2 -63 6 -94t25.5 -49.5t44.5 -22.5t84 -10q23 -25 0 -47q-168 10 -231 10q-61 0 -216 -10q-23 23 0 47q94 8 117 33.5
t27 142.5q8 211 0 426z" />
    <glyph glyph-name="Rcaron" unicode="&#x158;" horiz-adv-x="1280" 
d="M502 1427q-74 92 -207 195l33 41q123 -53 217 -125q117 82 219 125l31 -41q-102 -78 -205 -195h-88zM383 600q0 -119 4 -426q2 -84 42 -107.5t157 -29.5q8 -8 8 -22.5t-8 -24.5q-41 0 -128 5t-151 5q-57 0 -140 -5t-126 -5q-8 10 -8 24.5t8 22.5q115 4 144.5 30.5
t31.5 143.5q4 309 4 446q0 100 -4 441q-2 123 -32.5 152.5t-143.5 33.5q-8 10 -8 24.5t8 22.5q45 0 126 -5t136 -5q45 0 150.5 10t128.5 10q133 0 229 -35.5t141 -93t64.5 -110.5t19.5 -107q0 -113 -60.5 -215t-191.5 -153l256 -447q96 -158 224 -157q8 -16 2 -29
q-29 -14 -107 -14q-164 0 -276 182l-219 356q-18 31 -26.5 41t-28 19.5t-52.5 9.5q-135 0 -174 12zM387 1194q-4 -340 -4 -537v-10q45 -10 162 -10q311 0 311 321q0 180 -82 257t-205 77q-104 0 -142 -24.5t-40 -73.5z" />
    <glyph glyph-name="rcaron" unicode="&#x159;" horiz-adv-x="731" 
d="M358 1024q-78 127 -206 266l41 27q145 -106 217 -184q78 80 221 184l39 -27q-137 -154 -209 -266h-103zM207 639q-2 80 -24.5 102.5t-102.5 30.5q-10 16 -4 35q145 20 241 55q20 0 25 -12q6 -18 6 -137q0 -27 9 -26q3 1 8 7q109 164 217 164q63 0 90.5 -28.5t27.5 -65.5
t-27.5 -63.5t-64.5 -26.5q-47 0 -82 63q-10 18 -38.5 18.5t-90.5 -104.5q-43 -74 -47 -141q-6 -127 0 -297q2 -63 6 -94t25.5 -49.5t44.5 -22.5t84 -10q23 -25 0 -47q-168 10 -231 10q-61 0 -216 -10q-23 23 0 47q94 8 117 33.5t27 142.5q8 211 0 426z" />
    <glyph glyph-name="Sacute" unicode="&#x15a;" horiz-adv-x="993" 
d="M578 1679q88 -41 127 -106l-295 -119q-57 -25 -86 -24q-31 0 -31 30q0 23 31 43zM808 1292q28 -142 37 -264q-15 -12 -46 -12q-86 283 -324 282q-88 0 -158 -80t-70 -169q0 -48 22.5 -91.5t52 -72t80 -57.5t82 -43t83.5 -34t62 -24q130 -56 205 -136t75 -214
q0 -97 -52 -186t-140 -144q-108 -67 -253 -67q-97 0 -203.5 23.5t-164.5 23.5q-31 129 -41 311q18 9 21.5 10t24.5 -4q33 -151 133.5 -231t246.5 -80q121 0 190.5 73.5t69.5 198.5q0 56 -18 103t-40 76t-65.5 57t-70 40t-79 32.5t-68.5 27.5q-139 61 -217.5 141t-78.5 211
q0 158 114.5 256.5t275.5 98.5q117 0 201.5 -26t112.5 -30z" />
    <glyph glyph-name="sacute" unicode="&#x15b;" horiz-adv-x="765" 
d="M94 258q20 20 39 2q33 -131 86 -182q53 -53 150 -53q59 0 115.5 45t56.5 112q0 63 -42 104.5t-163 92.5q-115 49 -165 104.5t-50 155.5t79 159.5t197 59.5q45 0 92.5 -7t96.5 -18.5t65 -13.5q-4 -127 -10 -196q-20 -20 -43 -2q-29 193 -201 192q-59 0 -102 -43t-43 -102
q0 -72 48 -111t155 -80q113 -43 171 -100.5t58 -149.5q0 -68 -33 -119t-83 -77.5t-100 -38.5t-95 -12q-94 0 -178 22q-14 4 -39 4q-18 0 -50 -6q0 113 -12 258zM465 1268q12 4 29 4q63 0 112 -47l6 -23l-235 -223q-39 -39 -62 -39q-10 0 -19 8t-9 19q0 20 23 57z" />
    <glyph glyph-name="Scircumflex" unicode="&#x15c;" horiz-adv-x="993" 
d="M508 1669q90 -109 211 -199q-10 -33 -33 -43q-133 61 -217 125q-96 -70 -219 -125q-23 14 -29 43q84 63 207 199q37 23 80 0zM808 1292q28 -142 37 -264q-15 -12 -46 -12q-86 283 -324 282q-88 0 -158 -80t-70 -169q0 -48 22.5 -91.5t52 -72t80 -57.5t82 -43t83.5 -34
t62 -24q130 -56 205 -136t75 -214q0 -97 -52 -186t-140 -144q-108 -67 -253 -67q-97 0 -203.5 23.5t-164.5 23.5q-31 129 -41 311q18 9 21.5 10t24.5 -4q33 -151 133.5 -231t246.5 -80q121 0 190.5 73.5t69.5 198.5q0 56 -18 103t-40 76t-65.5 57t-70 40t-79 32.5
t-68.5 27.5q-139 61 -217.5 141t-78.5 211q0 158 114.5 256.5t275.5 98.5q117 0 201.5 -26t112.5 -30z" />
    <glyph glyph-name="scircumflex" unicode="&#x15d;" horiz-adv-x="765" 
d="M94 258q20 20 39 2q33 -131 86 -182q53 -53 150 -53q59 0 115.5 45t56.5 112q0 63 -42 104.5t-163 92.5q-115 49 -165 104.5t-50 155.5t79 159.5t197 59.5q45 0 92.5 -7t96.5 -18.5t65 -13.5q-4 -127 -10 -196q-20 -20 -43 -2q-29 193 -201 192q-59 0 -102 -43t-43 -102
q0 -72 48 -111t155 -80q113 -43 171 -100.5t58 -149.5q0 -68 -33 -119t-83 -77.5t-100 -38.5t-95 -12q-94 0 -178 22q-14 4 -39 4q-18 0 -50 -6q0 113 -12 258zM432 1298q76 -123 223 -286q-20 -29 -47 -35q-119 76 -211 170q-115 -115 -213 -170q-27 6 -45 35
q156 172 228 286q34 8 65 0z" />
    <glyph glyph-name="Scedilla" unicode="&#x15e;" horiz-adv-x="993" 
d="M451 -197q-53 0 -93 -12l-12 12l74 178q-74 3 -169.5 24.5t-154.5 21.5q-31 129 -41 311q18 9 21.5 10t24.5 -4q33 -151 133.5 -231t246.5 -80q121 0 190.5 73.5t69.5 198.5q0 56 -18 103t-40 76t-65.5 57t-70 40t-79 32.5t-68.5 27.5q-139 61 -217.5 141t-78.5 211
q0 158 114.5 256.5t275.5 98.5q117 0 201.5 -26t112.5 -30q28 -142 37 -264q-15 -12 -46 -12q-86 283 -324 282q-88 0 -158 -80t-70 -169q0 -48 22.5 -91.5t52 -72t80 -57.5t82 -43t83.5 -34t62 -24q130 -56 205 -136t75 -214q0 -97 -52 -186t-140 -144q-97 -61 -227 -67
l-44 -117q25 6 54 6q63 0 104 -35t41 -92q0 -66 -62.5 -109t-156.5 -43q-72 0 -152 35q0 33 21 53q78 -29 119 -28q47 0 75.5 21.5t28.5 60.5q1 71 -67 71z" />
    <glyph glyph-name="scedilla" unicode="&#x15f;" horiz-adv-x="765" 
d="M94 258q20 20 39 2q33 -131 86 -182q53 -53 150 -53q59 0 115.5 45t56.5 112q0 63 -42 104.5t-163 92.5q-115 49 -165 104.5t-50 155.5t79 159.5t197 59.5q45 0 92.5 -7t96.5 -18.5t65 -13.5q-4 -127 -10 -196q-20 -20 -43 -2q-29 193 -201 192q-59 0 -102 -43t-43 -102
q0 -72 48 -111t155 -80q113 -43 171 -100.5t58 -149.5q0 -60 -25 -106.5t-67 -74.5t-85.5 -43t-89.5 -21l-44 -119q25 6 53 6q63 0 104 -35t41 -92q0 -66 -62.5 -109t-156.5 -43q-72 0 -151 35q0 33 20 53q78 -29 119 -28q47 0 75.5 21.5t28.5 60.5q0 72 -67 71
q-53 0 -92 -12l-13 12l74 177q-78 2 -151 22q-14 4 -39 4q-18 0 -50 -6q0 113 -12 258z" />
    <glyph glyph-name="Scaron" unicode="&#x160;" horiz-adv-x="993" 
d="M440 1427q-74 92 -207 195l33 41q123 -53 217 -125q117 82 219 125l31 -41q-102 -78 -205 -195h-88zM808 1292q28 -142 37 -264q-15 -12 -46 -12q-86 283 -324 282q-88 0 -158 -80t-70 -169q0 -48 22.5 -91.5t52 -72t80 -57.5t82 -43t83.5 -34t62 -24q130 -56 205 -136
t75 -214q0 -97 -52 -186t-140 -144q-108 -67 -253 -67q-97 0 -203.5 23.5t-164.5 23.5q-31 129 -41 311q18 9 21.5 10t24.5 -4q33 -151 133.5 -231t246.5 -80q121 0 190.5 73.5t69.5 198.5q0 56 -18 103t-40 76t-65.5 57t-70 40t-79 32.5t-68.5 27.5q-139 61 -217.5 141
t-78.5 211q0 158 114.5 256.5t275.5 98.5q117 0 201.5 -26t112.5 -30z" />
    <glyph glyph-name="scaron" unicode="&#x161;" horiz-adv-x="765" 
d="M94 258q20 20 39 2q33 -131 86 -182q53 -53 150 -53q59 0 115.5 45t56.5 112q0 63 -42 104.5t-163 92.5q-115 49 -165 104.5t-50 155.5t79 159.5t197 59.5q45 0 92.5 -7t96.5 -18.5t65 -13.5q-4 -127 -10 -196q-20 -20 -43 -2q-29 193 -201 192q-59 0 -102 -43t-43 -102
q0 -72 48 -111t155 -80q113 -43 171 -100.5t58 -149.5q0 -68 -33 -119t-83 -77.5t-100 -38.5t-95 -12q-94 0 -178 22q-14 4 -39 4q-18 0 -50 -6q0 113 -12 258zM346 1022q-78 127 -207 266l41 27q145 -106 217 -185q78 80 221 185l39 -27q-137 -154 -208 -266h-103z" />
    <glyph glyph-name="Tcedilla" unicode="&#x162;" horiz-adv-x="1222" 
d="M633 -197q-53 0 -92 -12l-13 12l82 197q-53 0 -139 -5t-127 -5q-8 10 -8 24.5t8 22.5q119 4 159 35.5t42 150.5q4 170 4 434q0 293 -4 441q-2 96 -22.5 130t-76.5 34h-120q-211 0 -271 -238q-25 0 -49 10q39 172 51 303q0 6 9 6q285 -23 477 -22h176q203 0 459 22
q6 0 6 -6q4 -143 26 -297q-23 -10 -49 -10q-51 231 -284 232h-66q-55 0 -73.5 -33t-22.5 -131q-4 -129 -4 -443q0 -262 4 -432q2 -119 42 -150.5t158 -35.5q23 -25 0 -47q-44 1 -119 4.5t-116 4.5l-51 -136q25 6 53 6q63 0 104 -35t41 -92q0 -66 -62.5 -109t-156.5 -43
q-72 0 -151 35q0 33 20 53q78 -29 119 -28q47 0 75.5 21.5t28.5 60.5q1 71 -67 71z" />
    <glyph glyph-name="tcedilla" unicode="&#x163;" horiz-adv-x="614" 
d="M344 -197q-53 0 -92 -12l-12 12l73 177q-69 0 -103 46t-34 148q0 53 5 275.5t5 328.5h-114q-10 0 -11 13v18q0 29 35 29h90q0 96 -1 156.5t-3 84t-2 27.5q0 10 8.5 15t29 11.5t30.5 10.5q12 4 28.5 13t28.5 15.5t19 6.5q14 0 14 -19q-6 -78 -8 -205l-2 -116h235
q14 0 15 -13v-22q0 -25 -48 -25h-202q-16 -371 -11 -530q4 -100 16.5 -140t49.5 -40q82 0 174 69q16 -4 21 -28q-82 -93 -191 -120l-47 -126q25 6 53 6q63 0 104.5 -35t41.5 -92q0 -66 -62.5 -109t-157.5 -43q-72 0 -151 35q0 33 20 53q78 -29 119 -28q47 0 76 21.5t29 60.5
q0 71 -68 71z" />
    <glyph glyph-name="Tcaron" unicode="&#x164;" horiz-adv-x="1222" 
d="M567 1427q-74 92 -207 195l33 41q123 -53 217 -125q117 82 219 125l31 -41q-102 -78 -205 -195h-88zM545 1098q-2 96 -22.5 130t-76.5 34h-120q-211 0 -271 -238q-25 0 -49 10q39 172 51 303q0 6 9 6q285 -23 477 -22h176q203 0 459 22q6 0 6 -6q4 -143 26 -297
q-23 -10 -49 -10q-51 231 -284 232h-66q-55 0 -73.5 -33t-22.5 -131q-4 -129 -4 -443q0 -262 4 -432q2 -119 42 -150.5t158 -35.5q23 -25 0 -47q-41 0 -132 5t-152.5 5t-154.5 -5t-132 -5q-8 10 -8 24.5t8 22.5q119 4 159 35.5t42 150.5q4 170 4 434q0 294 -4 441z" />
    <glyph glyph-name="tcaron" unicode="&#x165;" horiz-adv-x="765" 
d="M668 1430q55 0 89 -45.5t34 -104.5q0 -66 -55.5 -136.5t-153.5 -80.5l-11 35q59 12 94 56t35 85q0 43 -28 43q-94 0 -94 78q0 27 23.5 48.5t66.5 21.5zM96 838h90q0 96 -1 156.5t-3 84t-2 27.5q0 10 8.5 15t29 11.5t30.5 10.5q12 4 28.5 13t28.5 15.5t19 6.5q14 0 14 -19
q-6 -78 -8 -205l-2 -116h235q14 0 15 -13v-22q0 -25 -48 -25h-202q-16 -371 -11 -530q4 -100 16.5 -140t49.5 -40q82 0 174 69q16 -4 21 -28q-115 -129 -265 -129q-137 0 -137 194q0 53 5 275.5t5 328.5h-114q-10 0 -11 13v18q0 29 35 29z" />
    <glyph glyph-name="Tbar" unicode="&#x166;" horiz-adv-x="1222" 
d="M545 1098q-2 96 -22.5 130t-76.5 34h-120q-211 0 -271 -238q-25 0 -49 10q39 172 51 303q0 6 9 6q285 -23 477 -22h176q203 0 459 22q6 0 6 -6q4 -143 26 -297q-23 -10 -49 -10q-51 231 -284 232h-66q-55 0 -73.5 -33t-22.5 -131q-4 -141 -4 -361h284q25 0 25 -22
q0 -37 -43 -37h-266v-23q0 -262 4 -432q2 -119 42 -150.5t158 -35.5q23 -25 0 -47q-41 0 -132 5t-152.5 5t-154.5 -5t-132 -5q-8 10 -8 24.5t8 22.5q119 4 159 35.5t42 150.5q4 170 4 434v21h-260q-23 0 -23 29q0 31 39 30h244q0 214 -4 361z" />
    <glyph glyph-name="tbar" unicode="&#x167;" horiz-adv-x="614" 
d="M96 838h90q0 96 -1 156.5t-3 84t-2 27.5q0 10 8.5 15t29 11.5t30.5 10.5q12 4 28.5 13t28.5 15.5t19 6.5q14 0 14 -19q-6 -78 -8 -205l-2 -116h235q14 0 15 -13v-22q0 -25 -48 -25h-202q-5 -120 -9 -246h238q25 0 25 -22q0 -33 -43 -33h-221q-3 -162 -1 -229
q4 -100 16.5 -140t49.5 -40q82 0 174 69q16 -4 21 -28q-115 -129 -265 -129q-137 0 -137 194q0 40 6 303h-78q-23 0 -22 29q0 27 39 26h62q3 153 3 246h-114q-10 0 -11 13v18q0 29 35 29z" />
    <glyph glyph-name="Utilde" unicode="&#x168;" horiz-adv-x="1368" 
d="M865 1542q35 0 55 22t42 85q32 3 55 -13q-19 -95 -64.5 -148.5t-113.5 -53.5q-13 0 -26 3.5t-28 11.5t-25 14t-27.5 18.5l-24.5 17.5q-64 39 -111 39q-38 0 -58 -22.5t-36 -75.5q-38 -7 -56 10q48 201 164 201q18 0 34 -4t34 -13.5t27 -15t29 -20t24 -17.5
q51 -39 106 -39zM367 551q0 -287 112 -395q117 -113 242 -113q100 0 173 34t114 84t64.5 123.5t30.5 138t7 144.5v531q0 66 -6 99.5t-33 52t-53.5 23.5t-95.5 11q-8 10 -8.5 24.5t8.5 22.5q49 0 114.5 -5t110.5 -5q39 0 95 5t106 5q8 -8 8 -22.5t-8 -24.5q-57 -6 -79 -11
t-45.5 -23.5t-29.5 -53.5t-6 -98v-494q0 -147 -21.5 -252.5t-75 -194.5t-155.5 -133t-256 -44q-80 0 -153.5 21.5t-150.5 72.5t-124 156.5t-47 252.5v174q0 270 -4 441q-2 123 -35 152.5t-146 33.5q-8 10 -8 24.5t8 22.5q43 0 126 -5t140.5 -5t140.5 5t126 5q8 -8 8 -22.5
t-8 -24.5q-115 -4 -147.5 -33.5t-34.5 -152.5q-4 -125 -4 -314v-233z" />
    <glyph glyph-name="utilde" unicode="&#x169;" horiz-adv-x="1038" 
d="M623 1120q35 0 55 21.5t41 85.5q33 2 55 -13q-41 -203 -178 -202q-12 0 -25.5 3t-29 11t-24.5 14.5t-26.5 19.5t-25.5 17q-63 39 -111 39q-39 0 -58.5 -22.5t-35.5 -75.5q-39 -6 -55 10q47 201 164 201q18 0 33.5 -4t34 -13.5t26.5 -14.5t28.5 -20.5t24.5 -17.5
q52 -39 107 -39zM403 -20q-242 0 -231 266q8 201 0 401q-4 94 -26.5 121t-94.5 33q-23 23 0 47q143 -4 187 -4q47 0 67 4q16 0 17 -12q-6 -121 -9 -181q-8 -190 0 -383q6 -135 33 -178t115 -43q37 0 100.5 34t116.5 81q4 4 12 11t10 8t4.5 7.5t3.5 11.5t1 17q8 211 0 422
q-4 96 -27 125t-94 33q-23 23 0 47q143 -4 186 -4q49 0 70 4q14 0 14 -12q-6 -121 -8 -181q-8 -211 0 -422q4 -78 29.5 -106.5t113.5 -36.5q14 -16 0 -31q-139 -16 -217 -79q-23 -6 -37 0q-23 72 -22 116q-2 10 -11.5 9t-17.5 -7q-148 -118 -285 -118z" />
    <glyph glyph-name="Umacron" unicode="&#x16a;" horiz-adv-x="1368" 
d="M947 1444h-459q-13 0 -19.5 12t-6.5 25q0 20 14.5 42.5t30.5 22.5h461q14 0 21 -11.5t7 -23.5q0 -20 -15 -43.5t-34 -23.5zM367 551q0 -287 112 -395q117 -113 242 -113q100 0 173 34t114 84t64.5 123.5t30.5 138t7 144.5v531q0 66 -6 99.5t-33 52t-53.5 23.5t-95.5 11
q-8 10 -8.5 24.5t8.5 22.5q49 0 114.5 -5t110.5 -5q39 0 95 5t106 5q8 -8 8 -22.5t-8 -24.5q-57 -6 -79 -11t-45.5 -23.5t-29.5 -53.5t-6 -98v-494q0 -147 -21.5 -252.5t-75 -194.5t-155.5 -133t-256 -44q-80 0 -153.5 21.5t-150.5 72.5t-124 156.5t-47 252.5v174
q0 270 -4 441q-2 123 -35 152.5t-146 33.5q-8 10 -8 24.5t8 22.5q43 0 126 -5t140.5 -5t140.5 5t126 5q8 -8 8 -22.5t-8 -24.5q-115 -4 -147.5 -33.5t-34.5 -152.5q-4 -125 -4 -314v-233z" />
    <glyph glyph-name="umacron" unicode="&#x16b;" horiz-adv-x="1038" 
d="M723 1044h-459q-27 0 -26 37q0 20 14 43t31 23h460q29 0 29 -35q0 -20 -15.5 -44t-33.5 -24zM403 -20q-242 0 -231 266q8 201 0 401q-4 94 -26.5 121t-94.5 33q-23 23 0 47q143 -4 187 -4q47 0 67 4q16 0 17 -12q-6 -121 -9 -181q-8 -190 0 -383q6 -135 33 -178t115 -43
q37 0 100.5 34t116.5 81q4 4 12 11t10 8t4.5 7.5t3.5 11.5t1 17q8 211 0 422q-4 96 -27 125t-94 33q-23 23 0 47q143 -4 186 -4q49 0 70 4q14 0 14 -12q-6 -121 -8 -181q-8 -211 0 -422q4 -78 29.5 -106.5t113.5 -36.5q14 -16 0 -31q-139 -16 -217 -79q-23 -6 -37 0
q-23 72 -22 116q-2 10 -11.5 9t-17.5 -7q-148 -118 -285 -118z" />
    <glyph glyph-name="Ubreve" unicode="&#x16c;" horiz-adv-x="1368" 
d="M1011 1647q-9 -105 -90.5 -168.5t-188.5 -63.5q-114 0 -192.5 63t-85.5 169h57q12 -58 74.5 -91.5t146.5 -33.5q80 0 145.5 33.5t75.5 91.5h58zM367 551q0 -287 112 -395q117 -113 242 -113q100 0 173 34t114 84t64.5 123.5t30.5 138t7 144.5v531q0 66 -6 99.5t-33 52
t-53.5 23.5t-95.5 11q-8 10 -8.5 24.5t8.5 22.5q49 0 114.5 -5t110.5 -5q39 0 95 5t106 5q8 -8 8 -22.5t-8 -24.5q-57 -6 -79 -11t-45.5 -23.5t-29.5 -53.5t-6 -98v-494q0 -147 -21.5 -252.5t-75 -194.5t-155.5 -133t-256 -44q-80 0 -153.5 21.5t-150.5 72.5t-124 156.5
t-47 252.5v174q0 270 -4 441q-2 123 -35 152.5t-146 33.5q-8 10 -8 24.5t8 22.5q43 0 126 -5t140.5 -5t140.5 5t126 5q8 -8 8 -22.5t-8 -24.5q-115 -4 -147.5 -33.5t-34.5 -152.5q-4 -125 -4 -314v-233z" />
    <glyph glyph-name="ubreve" unicode="&#x16d;" horiz-adv-x="1038" 
d="M268 1284q16 -82 78 -133t143.5 -51t144 49t77.5 135l55 -24q-18 -127 -99 -202t-178 -75q-109 0 -182.5 72.5t-93.5 204.5zM403 -20q-242 0 -231 266q8 201 0 401q-4 94 -26.5 121t-94.5 33q-23 23 0 47q143 -4 187 -4q47 0 67 4q16 0 17 -12q-6 -121 -9 -181
q-8 -190 0 -383q6 -135 33 -178t115 -43q37 0 100.5 34t116.5 81q4 4 12 11t10 8t4.5 7.5t3.5 11.5t1 17q8 211 0 422q-4 96 -27 125t-94 33q-23 23 0 47q143 -4 186 -4q49 0 70 4q14 0 14 -12q-6 -121 -8 -181q-8 -211 0 -422q4 -78 29.5 -106.5t113.5 -36.5q14 -16 0 -31
q-139 -16 -217 -79q-23 -6 -37 0q-23 72 -22 116q-2 10 -11.5 9t-17.5 -7q-148 -118 -285 -118z" />
    <glyph glyph-name="Uring" unicode="&#x16e;" horiz-adv-x="1368" 
d="M730 1589q-46 0 -72 -30.5t-26 -77.5q0 -45 26 -77t72 -32t72 31.5t26 77.5q0 48 -26.5 78t-71.5 30zM550 1481q0 70 54.5 122t126 52t125.5 -51.5t54 -122.5q0 -70 -53.5 -122t-126.5 -52q-71 0 -125.5 52t-54.5 122zM367 551q0 -287 112 -395q117 -113 242 -113
q100 0 173 34t114 84t64.5 123.5t30.5 138t7 144.5v531q0 66 -6 99.5t-33 52t-53.5 23.5t-95.5 11q-8 10 -8.5 24.5t8.5 22.5q49 0 114.5 -5t110.5 -5q39 0 95 5t106 5q8 -8 8 -22.5t-8 -24.5q-57 -6 -79 -11t-45.5 -23.5t-29.5 -53.5t-6 -98v-494q0 -147 -21.5 -252.5
t-75 -194.5t-155.5 -133t-256 -44q-80 0 -153.5 21.5t-150.5 72.5t-124 156.5t-47 252.5v174q0 270 -4 441q-2 123 -35 152.5t-146 33.5q-8 10 -8 24.5t8 22.5q43 0 126 -5t140.5 -5t140.5 5t126 5q8 -8 8 -22.5t-8 -24.5q-115 -4 -147.5 -33.5t-34.5 -152.5
q-4 -125 -4 -314v-233z" />
    <glyph glyph-name="uring" unicode="&#x16f;" horiz-adv-x="1038" 
d="M475 1303q-47 0 -72.5 -31t-25.5 -78q0 -45 26.5 -77t71.5 -32t71.5 32t26.5 77q0 49 -26.5 79t-71.5 30zM295 1194q0 70 54 122t126 52t126 -51t54 -123q0 -70 -53 -122t-127 -52q-72 0 -126 52t-54 122zM403 -20q-242 0 -231 266q8 201 0 401q-4 94 -26.5 121t-94.5 33
q-23 23 0 47q143 -4 187 -4q47 0 67 4q16 0 17 -12q-6 -121 -9 -181q-8 -190 0 -383q6 -135 33 -178t115 -43q37 0 100.5 34t116.5 81q4 4 12 11t10 8t4.5 7.5t3.5 11.5t1 17q8 211 0 422q-4 96 -27 125t-94 33q-23 23 0 47q143 -4 186 -4q49 0 70 4q14 0 14 -12
q-6 -121 -8 -181q-8 -211 0 -422q4 -78 29.5 -106.5t113.5 -36.5q14 -16 0 -31q-139 -16 -217 -79q-23 -6 -37 0q-23 72 -22 116q-2 10 -11.5 9t-17.5 -7q-148 -118 -285 -118z" />
    <glyph glyph-name="Uhungarumlaut" unicode="&#x170;" horiz-adv-x="1368" 
d="M1031 1622q0 -27 -14 -41l-203 -172q-6 -6 -16 -6q-9 0 -18 7.5t-9 19.5q0 9 8 22l121 223q15 25 47 25q41 0 62.5 -24.5t21.5 -53.5zM763 1632q0 -27 -14 -39l-181 -165q-17 -15 -28 -15t-19 7t-8 18q0 13 5 22l112 226q15 25 55 24q27 0 52.5 -22.5t25.5 -55.5z
M367 551q0 -287 112 -395q117 -113 242 -113q100 0 173 34t114 84t64.5 123.5t30.5 138t7 144.5v531q0 66 -6 99.5t-33 52t-53.5 23.5t-95.5 11q-8 10 -8.5 24.5t8.5 22.5q49 0 114.5 -5t110.5 -5q39 0 95 5t106 5q8 -8 8 -22.5t-8 -24.5q-57 -6 -79 -11t-45.5 -23.5
t-29.5 -53.5t-6 -98v-494q0 -147 -21.5 -252.5t-75 -194.5t-155.5 -133t-256 -44q-80 0 -153.5 21.5t-150.5 72.5t-124 156.5t-47 252.5v174q0 270 -4 441q-2 123 -35 152.5t-146 33.5q-8 10 -8 24.5t8 22.5q43 0 126 -5t140.5 -5t140.5 5t126 5q8 -8 8 -22.5t-8 -24.5
q-115 -4 -147.5 -33.5t-34.5 -152.5q-4 -125 -4 -314v-233z" />
    <glyph glyph-name="uhungarumlaut" unicode="&#x171;" horiz-adv-x="1038" 
d="M846 1251q0 -25 -15 -39l-233 -225q-4 -4 -12 -4t-18.5 8t-10.5 19q0 6 2 8l160 285q14 25 49 24q31 0 54.5 -23.5t23.5 -52.5zM575 1264q0 -20 -10 -33l-209 -248q-6 -6 -16 -6q-29 0 -29 27q0 4 2 6l131 299q12 29 54 28q33 0 55 -21t22 -52zM403 -20q-242 0 -231 266
q8 201 0 401q-4 94 -26.5 121t-94.5 33q-23 23 0 47q143 -4 187 -4q47 0 67 4q16 0 17 -12q-6 -121 -9 -181q-8 -190 0 -383q6 -135 33 -178t115 -43q37 0 100.5 34t116.5 81q4 4 12 11t10 8t4.5 7.5t3.5 11.5t1 17q8 211 0 422q-4 96 -27 125t-94 33q-23 23 0 47
q143 -4 186 -4q49 0 70 4q14 0 14 -12q-6 -121 -8 -181q-8 -211 0 -422q4 -78 29.5 -106.5t113.5 -36.5q14 -16 0 -31q-139 -16 -217 -79q-23 -6 -37 0q-23 72 -22 116q-2 10 -11.5 9t-17.5 -7q-148 -118 -285 -118z" />
    <glyph glyph-name="Uogonek" unicode="&#x172;" horiz-adv-x="1368" 
d="M1035 -276q-86 -133 -225 -134q-180 0 -180 152q0 115 183 248q-61 -10 -133 -10q-80 0 -153.5 21.5t-150.5 72.5t-124 156.5t-47 252.5v174q0 270 -4 441q-2 123 -35 152.5t-146 33.5q-8 10 -8 24.5t8 22.5q43 0 126 -5t140.5 -5t140.5 5t126 5q8 -8 8 -22.5t-8 -24.5
q-115 -4 -147.5 -33.5t-34.5 -152.5q-4 -125 -4 -314v-233q0 -287 112 -395q117 -113 242 -113q100 0 173 34t114 84t64.5 123.5t30.5 138t7 144.5v531q0 66 -6 99.5t-33 52t-53.5 23.5t-95.5 11q-8 10 -8.5 24.5t8.5 22.5q49 0 114.5 -5t110.5 -5q39 0 95 5t106 5
q8 -8 8 -22.5t-8 -24.5q-57 -6 -79 -11t-45.5 -23.5t-29.5 -53.5t-6 -98v-494q0 -212 -47.5 -351.5t-168.5 -208.5q-123 -101 -169 -157t-46 -123q0 -96 102 -96q28 0 53.5 11.5t40.5 24.5t43 42q26 1 39 -22z" />
    <glyph glyph-name="uogonek" unicode="&#x173;" horiz-adv-x="1038" 
d="M1026 -268q-86 -133 -225 -133q-180 0 -180 151q0 61 28 128t85 119q-17 64 -17 99q-2 10 -11.5 9t-17.5 -7q-147 -119 -285 -118q-242 0 -231 266q8 201 0 401q-4 94 -26.5 121t-94.5 33q-23 23 0 47q143 -4 187 -4q47 0 67 4q16 0 17 -12q-6 -121 -9 -181
q-8 -190 0 -383q6 -135 33 -178t115 -43q37 0 100.5 34t116.5 81q4 4 12 11t10 8t4.5 7.5t3.5 11.5t1 17q8 211 0 422q-4 96 -27 125t-94 33q-23 23 0 47q143 -4 186 -4q49 0 70 4q14 0 14 -12q-6 -121 -8 -181q-8 -211 0 -422q4 -78 29.5 -106.5t113.5 -36.5q14 -16 0 -31
q-35 -4 -64 -10q-94 -30 -137.5 -111.5t-43.5 -164.5q0 -96 102 -97q29 0 53.5 11.5t39.5 25t44 41.5q27 1 39 -22z" />
    <glyph glyph-name="Wcircumflex" unicode="&#x174;" horiz-adv-x="2009" 
d="M1010 1655q90 -108 211 -199q-10 -34 -32 -43q-134 62 -217 125q-95 -70 -220 -125q-22 15 -28 43q83 63 207 199q35 22 79 0zM1725 1157q21 60 -20.5 91t-114.5 36q-9 9 -9 23.5t9 23.5q40 -1 119 -5.5t107 -4.5q27 0 83.5 4.5t94.5 5.5q9 -9 9 -23.5t-9 -23.5
q-78 -4 -127 -47t-70 -104l-403 -1110q-16 -47 -56 -48q-52 0 -69 50l-240 727q-19 57 -29 57q-12 0 -28 -51l-285 -733q-18 -49 -51 -50q-25 0 -47 13t-29 37l-373 1114q-27 81 -64 110.5t-108 34.5q-9 9 -9 23.5t9 23.5q36 -1 94.5 -5.5t102.5 -4.5q46 0 130.5 5t104.5 5
q9 -9 9.5 -23.5t-9.5 -23.5q-57 -3 -83.5 -32t-10.5 -81l307 -944l13 -49l20 49l258 678q4 11 4 51q0 21 -20 84l-31 95q-17 53 -61.5 99t-116.5 50q-9 9 -9 23.5t9 23.5q36 -1 102 -5.5t109 -4.5q44 0 127 4.5t127 5.5q9 -9 9 -23.5t-9 -23.5q-65 -6 -102 -40.5t-13 -108.5
l295 -912l14 -43l15 43z" />
    <glyph glyph-name="wcircumflex" unicode="&#x175;" horiz-adv-x="1460" 
d="M784 1296q76 -123 224 -286q-20 -29 -47 -35q-119 76 -211 170q-115 -115 -213 -170q-27 6 -45 35q156 172 227 286q34 8 65 0zM397 801q-68 -4 -83 -44t16 -110l155 -403q12 -33 23.5 -42t23 2t23.5 44l135 332l-16 45q-4 8 -10.5 28.5t-10.5 28.5t-10 25.5t-11 24.5
t-14.5 20.5t-17.5 19.5t-19.5 13.5t-25.5 10.5t-31 5q-8 10 -8 24.5t8 22.5q35 0 87.5 -5t82.5 -5q29 0 96.5 5t100.5 5q23 -25 0 -47q-76 -6 -93.5 -40t13.5 -104l168 -428q10 -29 20.5 -34t18.5 5.5t18 37.5l164 407q12 35 17.5 54.5t1 45t-32 40t-80.5 16.5
q-8 10 -8 24.5t8 22.5q31 0 91 -5t101 -5q39 0 80 5t58 5q23 -25 0 -47q-47 -2 -81 -30t-48.5 -54.5t-36.5 -79.5l-254 -619q-18 -41 -45 -41q-29 0 -47 39l-201 484l-199 -480q-20 -43 -45 -43q-29 0 -47 39l-256 631q-33 84 -61.5 115t-94.5 39q-8 10 -8 24.5t8 22.5
q16 0 77 -5t95.5 -5t104.5 5t100 5q8 -8 8 -22.5t-8 -24.5z" />
    <glyph glyph-name="Ycircumflex" unicode="&#x176;" horiz-adv-x="1249" 
d="M711 1655q90 -108 211 -199q-10 -34 -33 -43q-134 62 -217 125q-95 -70 -219 -125q-22 15 -29 43q83 63 207 199q36 22 80 0zM735 223q2 -121 37 -151.5t162 -34.5q8 -8 8 -22.5t-8 -24.5q-41 0 -132 5t-152.5 5t-155 -5t-132.5 -5q-23 23 0 47q127 4 162 34.5t37 151.5
l6 307q0 23 -1 37.5t-6 27.5t-8.5 19.5t-14.5 23.5t-19 30l-269 452q-57 97 -107.5 128t-125.5 36q-25 25 -2 47q14 0 98.5 -5t131.5 -5q45 0 127 5t114 5q23 -25 0 -47q-90 -4 -108.5 -21.5t14.5 -82.5l259 -455q27 -49 51 -4l243 459q16 31 17.5 51t-15 30.5t-38 15.5
t-60.5 7q-23 23 0 45q41 0 106.5 -4t89.5 -4q27 0 97.5 4t93.5 4q23 -23 0 -45q-81 -8 -130 -32t-89 -95l-261 -473q-26 -47 -26 -136z" />
    <glyph glyph-name="ycircumflex" unicode="&#x177;" horiz-adv-x="1013" 
d="M596 1298q76 -123 223 -286q-20 -29 -47 -35q-119 76 -211 170q-115 -115 -213 -170q-27 6 -45 35q156 172 227 286q35 8 66 0zM379 -354q-78 -139 -189 -140q-39 0 -65.5 20.5t-26.5 51.5q0 23 20.5 45.5t59.5 22.5q10 0 29.5 -5.5t34.5 -5.5q72 0 112 78q59 129 78 181
q33 86 -26 223l-222 514q-41 98 -71.5 131t-92.5 39q-8 10 -8 24.5t8 22.5q96 -10 158 -10q68 0 221 10q23 -25 0 -47q-57 -4 -76.5 -26.5t-14.5 -49.5t26 -76l174 -405q16 -41 26.5 -51.5t20.5 0t27 49.5l194 448q20 47 -13.5 76t-86.5 35q-8 10 -8 24.5t8 22.5
q106 -10 178 -10q57 0 139 10q23 -25 0 -47q-49 -4 -98 -51.5t-72 -98.5q-123 -260 -362 -837q-39 -90 -82 -168z" />
    <glyph glyph-name="Ydieresis" unicode="&#x178;" horiz-adv-x="1249" 
d="M392 1538q0 40 28 69t68 29t68 -29t28 -69t-28 -68t-68 -28t-68 28t-28 68zM738 1538q0 40 28 69t68 29t68 -29t28 -69t-28 -68t-68 -28t-68 28t-28 68zM735 223q2 -121 37 -151.5t162 -34.5q8 -8 8 -22.5t-8 -24.5q-41 0 -132 5t-152.5 5t-155 -5t-132.5 -5q-23 23 0 47
q127 4 162 34.5t37 151.5l6 307q0 23 -1 37.5t-6 27.5t-8.5 19.5t-14.5 23.5t-19 30l-269 452q-57 97 -107.5 128t-125.5 36q-25 25 -2 47q14 0 98.5 -5t131.5 -5q45 0 127 5t114 5q23 -25 0 -47q-90 -4 -108.5 -21.5t14.5 -82.5l259 -455q27 -49 51 -4l243 459
q16 31 17.5 51t-15 30.5t-38 15.5t-60.5 7q-23 23 0 45q41 0 106.5 -4t89.5 -4q27 0 97.5 4t93.5 4q23 -23 0 -45q-81 -8 -130 -32t-89 -95l-261 -473q-26 -47 -26 -136z" />
    <glyph glyph-name="Zacute" unicode="&#x179;" horiz-adv-x="1224" 
d="M1116 -10q-204 10 -259 10h-746q-39 0 -39 31q0 25 16 47q164 244 408.5 585t388.5 523q33 45 33 59q0 16 -50 17l-440 -9q-203 -4 -274 -237q-6 0 -41 10q35 178 45 317q279 -23 370 -22h453q35 0 88 2t61 2q27 0 27 -22q0 -29 -49 -93q-319 -412 -768 -1063
q-16 -29 -16 -41q0 -16 13 -32.5t38 -16.5l416 9q76 2 131 21t93 64.5t57.5 79t47.5 99.5q6 12 8 18q6 0 43 -10q-39 -172 -55 -348zM691 1679q88 -41 127 -106l-295 -119q-57 -25 -86 -24q-13 0 -22 9t-9 21q0 22 31 43z" />
    <glyph glyph-name="zacute" unicode="&#x17a;" horiz-adv-x="839" 
d="M524 1343q12 4 29 5q63 0 113 -48l6 -22l-236 -223q-39 -39 -61 -39q-10 0 -19.5 8t-9.5 18q0 20 23 58zM150 858q12 -2 29.5 -8t37 -9t47.5 -3h330q25 0 53.5 1t48 2t21.5 1q23 0 22 -15q0 -16 -34 -71q-342 -563 -459 -711h270q70 0 109 40t82 130l28 57q18 0 37 -12
q-23 -152 -61 -266l-578 6q-45 0 -45 23q0 16 18 40q176 238 469 730l-266 -7q-104 -2 -157 -198q-20 -6 -43 6q27 156 28 252q0 2 5.5 7t7.5 5z" />
    <glyph glyph-name="Zdotaccent" unicode="&#x17b;" horiz-adv-x="1224" 
d="M507 1860q0 43 31.5 74.5t74.5 31.5t75 -31.5t32 -74.5t-32 -75t-75 -32t-74.5 32t-31.5 75zM1116 -10q-204 10 -259 10h-746q-39 0 -39 31q0 25 16 47q164 244 408.5 585t388.5 523q33 45 33 59q0 16 -50 17l-440 -9q-203 -4 -274 -237q-6 0 -41 10q35 178 45 317
q279 -23 370 -22h453q35 0 88 2t61 2q27 0 27 -22q0 -29 -49 -93q-319 -412 -768 -1063q-16 -29 -16 -41q0 -16 13 -32.5t38 -16.5l416 9q76 2 131 21t93 64.5t57.5 79t47.5 99.5q6 12 8 18q6 0 43 -10q-39 -172 -55 -348z" />
    <glyph glyph-name="zdotaccent" unicode="&#x17c;" horiz-adv-x="839" 
d="M338 1227q0 37 35 67.5t71 30.5q39 0 69 -34t30 -72q0 -35 -33 -67t-74 -32q-37 0 -67.5 34t-30.5 73zM150 858q12 -2 29.5 -8t37 -9t47.5 -3h330q25 0 53.5 1t48 2t21.5 1q23 0 22 -15q0 -16 -34 -71q-342 -563 -459 -711h270q70 0 109 40t82 130l28 57q18 0 37 -12
q-23 -152 -61 -266l-578 6q-45 0 -45 23q0 16 18 40q176 238 469 730l-266 -7q-104 -2 -157 -198q-20 -6 -43 6q27 156 28 252q0 2 5.5 7t7.5 5z" />
    <glyph glyph-name="Zcaron" unicode="&#x17d;" horiz-adv-x="1224" 
d="M572 1427q-74 91 -207 195l33 41q123 -54 217 -125q116 81 219 125l31 -41q-101 -77 -205 -195h-88zM1116 -10q-204 10 -259 10h-746q-39 0 -39 31q0 25 16 47q164 244 408.5 585t388.5 523q33 45 33 59q0 16 -50 17l-440 -9q-203 -4 -274 -237q-6 0 -41 10
q35 178 45 317q279 -23 370 -22h453q35 0 88 2t61 2q27 0 27 -22q0 -29 -49 -93q-319 -412 -768 -1063q-16 -29 -16 -41q0 -16 13 -32.5t38 -16.5l416 9q76 2 131 21t93 64.5t57.5 79t47.5 99.5q6 12 8 18q6 0 43 -10q-39 -172 -55 -348z" />
    <glyph glyph-name="zcaron" unicode="&#x17e;" horiz-adv-x="839" 
d="M385 1055q-78 127 -207 266l41 27q145 -106 217 -185q78 80 221 185l39 -27q-137 -154 -209 -266h-102zM150 858q12 -2 29.5 -8t37 -9t47.5 -3h330q25 0 53.5 1t48 2t21.5 1q23 0 22 -15q0 -16 -34 -71q-342 -563 -459 -711h270q70 0 109 40t82 130l28 57q18 0 37 -12
q-23 -152 -61 -266l-578 6q-45 0 -45 23q0 16 18 40q176 238 469 730l-266 -7q-104 -2 -157 -198q-20 -6 -43 6q27 156 28 252q0 2 5.5 7t7.5 5z" />
    <glyph glyph-name="longs" unicode="&#x17f;" horiz-adv-x="595" 
d="M336 213q4 -119 27.5 -145.5t125.5 -30.5q23 -25 0 -47q-35 0 -105.5 5t-117.5 5q-41 0 -101.5 -5t-96.5 -5q-23 23 0 47q80 4 101 30.5t26 145.5l2 545q0 33 -31 33l-68 2q-8 0 -8 8l2 18q2 18 45 19q39 0 48.5 24.5t9.5 136.5q0 170 69 283q92 147 240 148
q100 0 164 -58q49 -43 49 -90q0 -53 -68 -53q-76 0 -90 80q-14 72 -67 71q-99 0 -136 -170q-14 -64 -20 -217q-4 -78 -4 -390t4 -390z" />
    <glyph glyph-name="Ohorn" unicode="&#x1a0;" horiz-adv-x="1423" 
d="M670 1298q-158 0 -285 -164.5t-127 -463.5q0 -283 147.5 -462t344.5 -179q178 0 296.5 168t118.5 438q0 301 -143 482t-352 181zM1350 674q0 -262 -123 -436q-86 -123 -218.5 -190.5t-299.5 -67.5q-268 0 -451.5 180t-183.5 475q0 276 136 463q86 118 211.5 184t274.5 66
q160 0 294 -62q18 -2 41 -2q31 0 72 20.5t41 65.5q0 19 -20.5 34.5t-43.5 16.5q-48 6 -72 34t-24 63q0 37 24.5 58t69.5 21q58 0 100 -55.5t42 -130.5q0 -156 -131 -182q123 -87 192 -228.5t69 -326.5z" />
    <glyph glyph-name="ohorn" unicode="&#x1a1;" horiz-adv-x="1026" 
d="M82 399q0 195 108 322q117 137 306 137q102 0 183 -37q24 -4 56 -4q31 0 68 17.5t37 60.5q0 37 -56 45q-45 4 -69.5 29.5t-24.5 58.5q0 76 90 76q53 0 89 -50t36 -122q0 -70 -36 -115.5t-99 -56.5q68 -63 101.5 -154t33.5 -188q0 -203 -127 -328q-115 -111 -286 -110
q-195 0 -302.5 126.5t-107.5 292.5zM467 811q-121 0 -175 -108.5t-54 -258.5q0 -84 26.5 -175t94 -166.5t161.5 -75.5q84 0 157 81.5t73 247.5q0 209 -78 332t-205 123z" />
    </font>
</defs>
</svg>
